Торрент файл
скачать торрент магнет ссылка Добавлен: 09 фев 2017, 16:08
Размер: 1.46 ГБ
Сидеров: 308
Личеров: 47
Автор

СообщениеДобавлено: 09 фев 2017, 16:08 

Не в сети
Дата регистрации:
28 сен 2016, 18:10
Спасибо: 217 / 0
Сообщения: 1996
Год выпуска: 2016
Страна: США
Производство: Broad Green Pictures, Ingenious Media, Miramax Films
Жанр: Драма, комедия, криминал
Режиссёр: Марк Уотерс
В ролях: Билли Боб Торнтон, Кэти Бэйтс, Тони Кокс, Кристина Хендрикс, Бретт Келли, Райан Хансен, Дженни Зигрино, Джефф Скоурон, Кристина Розато, Майк Старр
Перевод: Профессиональный (дублированный) | iTunes + Авторский (одноголосый) | Дмитрий «Гоблин» Пучков
Субтитры: Нет
Описание: Продолжение новогодних приключений проходимца Вилли, который в канун Рождества, как всегда, переодевается в Санта-Клауса. Ограбить очередной супермаркет в этом наряде не представляет никаких проблем. Но в Рождество случаются всякие чудеса. Каким оно будет для Вилли на этот раз?

Качество: HDRip-AVC
Продолжительность: 01:34:50
Формат: MKV
Видео кодек: x264
Аудио кодек: AC3
Видео: 720x390 (2.40:1), 23,976 fps, x264 ~1817 kbps avg, 0.270 bit/pixel
Аудио #1: 48 kHz, AC3 Dolby Digital, 2 (L,R) ch, ~192.00 kbps avg | iTunes RUS
Аудио #2: 48 kHz, AC3 Dolby Digital, 2 (L,R) ch, ~192.00 kbps avg | AVO
Дата премьеры (мир): 23 ноября 2016
Дата премьеры (РФ): 1 декабря 2016, «Парадиз»

Релиз от: Rip by:
Дополнительная информация: на расширенные моменты iTunes перевод отсутствует. В переводе «Гоблина» присутствует ненормативная лексика
Общее
Уникальный идентификатор : 226772643305785926737355850860157731370 (0xAA9AD28AD74D40F09C76804AD75C022A)
Полное имя : D:Bad.Santa.2.2016.UNRATED.D.AVO.BDRip(AVC).ExKinoRay.mkv
Формат : Matroska
Версия формата : Version 2
Размер файла : 1,46 Гбайт
Продолжительность : 1 ч. 34 м.
Общий поток : 2201 Кбит/сек
Дата кодирования : UTC 2017-02-08 17:11:10
Программа кодирования : mkvmerge v7.8.0 ('River Man') 32bit built on Apr 3 2015 12:11:22
Библиотека кодирования : libebml v1.3.1 + libmatroska v1.4.2
Видео
Идентификатор : 1
Формат : AVC
Формат/Информация : Advanced Video Codec
Профиль формата : High@L4.1
Параметр CABAC формата : Да
Параметр ReFrames формата : 10 кадров
Идентификатор кодека : V_MPEG4/ISO/AVC
Продолжительность : 1 ч. 34 м.
Битрейт : 1817 Кбит/сек
Ширина : 720 пикселей
Высота : 390 пикселей
Соотношение сторон : 1,85:1
Режим частоты кадров : Постоянный
Частота кадров : 23,976 (24000/1001) кадра/сек
Цветовое пространство : YUV
Субдискретизация насыщенности : 4:2:0
Битовая глубина : 8 бит
Тип развёртки : Прогрессивная
Бит/(Пиксели*Кадры) : 0.270
Размер потока : 1,17 Гбайт (81%)
Библиотека кодирования : x264 core 146 r2538 121396c
Настройки программы : cabac=1 / ref=10 / deblock=1:-3:-3 / analyse=0x3:0x133 / me=umh / subme=10 / psy=1 / psy_rd=0.00:0.03 / mixed_ref=1 / me_range=48 / chroma_me=1 / trellis=2 / 8x8dct=1 / cqm=0 / deadzone=21,11 / fast_pskip=0 / chroma_qp_offset=-1 / threads=6 / lookahead_threads=1 / sliced_threads=0 / nr=0 / decimate=0 / interlaced=0 / bluray_compat=0 / constrained_intra=0 / bframes=10 / b_pyramid=2 / b_adapt=2 / b_bias=0 / direct=3 / weightb=1 / open_gop=0 / weightp=2 / keyint=250 / keyint_min=23 / scenecut=40 / intra_refresh=0 / rc_lookahead=40 / rc=2pass / mbtree=0 / bitrate=1817 / ratetol=1.0 / qcomp=0.60 / qpmin=0 / qpmax=69 / qpstep=4 / cplxblur=20.0 / qblur=0.5 / vbv_maxrate=50000 / vbv_bufsize=62500 / nal_hrd=none / filler=0 / ip_ratio=1.40 / pb_ratio=1.30 / aq=1:1.00
Default : Да
Forced : Нет
Аудио #1
Идентификатор : 2
Формат : AC-3
Формат/Информация : Audio Coding 3
Расширение режима : CM (complete main)
Параметр Endianness формата : Big
Идентификатор кодека : A_AC3
Продолжительность : 1 ч. 34 м.
Вид битрейта : Постоянный
Битрейт : 192 Кбит/сек
Каналы : 2 канала
Расположение каналов : Front: L R
Частота : 48,0 КГц
Частота кадров : 31,250 кадров/сек (1536 spf)
Битовая глубина : 16 бит
Метод сжатия : С потерями
Размер потока : 130 Мбайт (9%)
Default : Да
Forced : Нет
Аудио #2
Идентификатор : 3
Формат : AC-3
Формат/Информация : Audio Coding 3
Расширение режима : CM (complete main)
Параметр Endianness формата : Big
Идентификатор кодека : A_AC3
Продолжительность : 1 ч. 34 м.
Вид битрейта : Постоянный
Битрейт : 192 Кбит/сек
Каналы : 2 канала
Расположение каналов : Front: L R
Частота : 48,0 КГц
Частота кадров : 31,250 кадров/сек (1536 spf)
Битовая глубина : 16 бит
Метод сжатия : С потерями
Размер потока : 130 Мбайт (9%)
Default : Нет
Forced : Нет
Меню
00:00:00.000 : en:00:00:00.000
00:05:53.228 : en:00:05:53.228
00:11:00.743 : en:00:11:00.743
00:16:22.857 : en:00:16:22.857
00:20:14.213 : en:00:20:14.213
00:25:34.700 : en:00:25:34.700
00:29:40.445 : en:00:29:40.445
00:33:51.696 : en:00:33:51.696
00:36:57.132 : en:00:36:57.132
00:41:20.019 : en:00:41:20.019
00:44:49.812 : en:00:44:49.812
00:52:09.334 : en:00:52:09.334
01:00:33.546 : en:01:00:33.546
01:05:54.158 : en:01:05:54.158
01:13:17.977 : en:01:13:17.977
01:17:48.497 : en:01:17:48.497
01:21:58.205 : en:01:21:58.205
01:25:43.221 : en:01:25:43.221






Вернуться к началу
 Профиль Отправить личное сообщение  
 
   Похожие торренты   Автор   Торрент   Размер 
В этой теме нет новых непрочитанных сообщений. Плохой Санта 2 / Bad Santa 2 (драма, комедия, криминал, 2016) BDRip от ExKinoRay | Расширенная версия | iTunes

marya111

114 | 25

1.42 ГБ

В этой теме нет новых непрочитанных сообщений. Плохой Санта 2 / Bad Santa 2 (драма, комедия, криминал, 2016) BDRip 1080p | Расширенная версия | iTunes, А

marya111

620 | 143

8.16 ГБ

В этой теме нет новых непрочитанных сообщений. Плохой Санта 2 / Bad Santa 2 ( Драма, комедия, криминал, 2016) BDRip от MegaPeer | Театральная версия | iTunes, А

marya111

147 | 32

1.67 ГБ

В этой теме нет новых непрочитанных сообщений. Плохой Санта 2 / Bad Santa 2 [драма, комедия, криминал, 2016] WEB-DL 1080p, Dub [iTunes]

salma3

5749 | 1169

3.44 ГБ

В этой теме нет новых непрочитанных сообщений. Плохой Санта 2 / Bad Santa 2 [драма, комедия, криминал, 2016] WEB-DLRip, Dub [iTunes]

salma3

5029 | 772

1.37 ГБ

В этой теме нет новых непрочитанных сообщений. Плохой Санта 2 / Bad Santa 2 (драма, комедия, криминал, 2016) BDRip 720p от New-Team | iTunes, A

marya111

265 | 89

4.24 ГБ

В этой теме нет новых непрочитанных сообщений. Плохой Санта 2 / Bad Santa 2 (Драма, комедия, криминал, 2016) WEB-DLRip-AVC от OlLanDGroup | iTunes Russia

marya111

2331 | 152

1.46 ГБ


Начать новую тему Ответить на тему  [ 1 сообщение ] 




Для Мосгорсуда, Роскомнадзора и рекламодателей:: mosgorsud-torrent[собачка]yandex.ru
cron