Торрент файл
скачать торрент магнет ссылка Добавлен: 08 фев 2017, 15:52
Размер: 231.68 МБ
Сидеров: 635
Личеров: 37
Автор

СообщениеДобавлено: 08 фев 2017, 15:52 

Не в сети
Дата регистрации:
28 сен 2016, 18:10
Спасибо: 216 / 0
Сообщения: 1996
Код 8 / Code 8
Страна: США Канада
Производство: Colony Pictures Inc.
Год выпуска: 2016
Жанр: короткометражка, фантастика, боевик, криминал
Продолжительность: 00:10:17
Режиссер: Джефф Чан
Авторы сценария: Джефф Чан, Крис Паре
В ролях: Стивен Амелл, Робби Амелл, Санг Кенг, Чэд Донелла, Аарон Абрамс, Альфред Томпсон, Джек Хоран, Кевин Карскаллен, Пит Хуанг
Описание: Четыре процента населения Линкольн Сити обладают сверхспособностями. Эти «Особые» люди живут за гранью бедности и пытаются ухватиться за любую работу, чтобы прокормить семью и не остаться на улице. Но далеко не все из них готовы работать за гроши. Некоторые прибегают к криминальным методам «зарабатывания» денег с помощью своей уникальности. Главный герой еле-еле сводит концы с концами, зарабатывая честным путём, но ущемление прав «Особых» заставляет его пересмотреть свои взгляды…

Перевод: Любительский (двухголосый, закадровый) | DeeAFilm Studio
Субтитры: нет

Качество: WEB-DLRip-AVC
Формат: МКV
Видео кодек: AVC
Аудио кодек: AAC
Видео: 1152x432 (2.667), 23.976 fps, MPEG-4 AVC ~2 749 kbps avg
Аудио №1: 48.0 kHz, Advanced Audio Codec LC, 2/0 (L,R) ch, ~138 kbps | RUS
Аудио №2: 48.0 kHz, Advanced Audio Codec LC, 2/0 (L,R) ch, ~256 kbps | ENG
Дата премьеры (мир): 22 марта 2016

General
Уникальный идентификатор : 178238751498587804494498946782041390985 (0x861788EDA468BD5482197789D5DEBF89)
Полное имя : Code 8.2016.WEB-DLRip-AVC.mkv
Формат : Matroska
Версия формата : Version 4 / Version 2
Размер файла : 232 Мбайт
Продолжительность : 10 м.
Общий поток : 3145 Кбит/сек
Название фильма : Code 8.2016.WEB-DLRip-AVC -Azureus-
Дата кодирования : UTC 2017-02-01 00:02:41
Программа кодирования : mkvmerge v9.4.0 ('Knurl') 64bit
Библиотека кодирования : libebml v1.3.4 + libmatroska v1.4.5
Видео
Идентификатор : 1
Формат : AVC
Формат/Информация : Advanced Video Codec
Профиль формата : High@L4.1
Параметр CABAC формата : Да
Параметр ReFrames формата : 9 кадров
Идентификатор кодека : V_MPEG4/ISO/AVC
Продолжительность : 10 м.
Битрейт : 2749 Кбит/сек
Ширина : 1152 пикселя
Высота : 432 пикселя
Соотношение сторон : 2,667
Режим частоты кадров : Постоянный
Частота кадров : 23,976 (24000/1001) кадра/сек
Цветовое пространство : YUV
Субдискретизация насыщенности : 4:2:0
Битовая глубина : 8 бит
Тип развёртки : Прогрессивная
Бит/(Пиксели*Кадры) : 0.230
Размер потока : 202 Мбайт (87%)
Библиотека кодирования : x264 core 148 r2744kMod b97ae06
Настройки программы : cabac=1 / ref=9 / deblock=1:-2:-1 / analyse=0x3:0x133 / me=umh / subme=11 / psy=1 / fade_compensate=0.00 / psy_rd=0.60:0.00 / mixed_ref=1 / me_range=32 / chroma_me=1 / trellis=2 / 8x8dct=1 / cqm=0 / deadzone=21,11 / fast_pskip=0 / chroma_qp_offset=-2 / threads=6 / lookahead_threads=1 / sliced_threads=0 / nr=0 / decimate=1 / interlaced=0 / bluray_compat=0 / constrained_intra=0 / bframes=16 / b_pyramid=2 / b_adapt=2 / b_bias=0 / direct=3 / weightb=1 / open_gop=0 / weightp=2 / keyint=250 / keyint_min=23 / scenecut=40 / intra_refresh=0 / rc_lookahead=70 / rc=crf / mbtree=0 / crf=18.0000 / qcomp=0.60 / qpmin=0 / qpmax=69 / qpstep=4 / vbv_maxrate=50000 / vbv_bufsize=62500 / crf_max=0.0 / nal_hrd=none / filler=0 / ip_ratio=1.40 / pb_ratio=1.30 / aq=3:1.00
Default : Да
Forced : Нет
Цветовой диапазон : Limited
Основные цвета : BT.709
Характеристики трансфера : BT.709
Коэффициенты матрицы : BT.709
Аудио #1
Идентификатор : 2
Формат : AAC
Формат/Информация : Advanced Audio Codec
Профиль формата : LC
Идентификатор кодека : A_AAC
Продолжительность : 10 м.
Битрейт : 138 Кбит/сек
Каналы : 2 канала
Расположение каналов : Front: L R
Частота : 48,0 КГц
Частота кадров : 46,875 кадров/сек (1024 spf)
Метод сжатия : С потерями
Задержка видео : 9 мс.
Размер потока : 10,1 Мбайт (4%)
Заголовок : DVO - DeeAFilm Studio
Язык : Russian
Default : Да
Forced : Нет
Аудио #2
Идентификатор : 3
Формат : AAC
Формат/Информация : Advanced Audio Codec
Профиль формата : LC
Идентификатор кодека : A_AAC
Продолжительность : 10 м.
Битрейт : 256 Кбит/сек
Каналы : 2 канала
Расположение каналов : Front: L R
Частота : 48,0 КГц
Частота кадров : 46,875 кадров/сек (1024 spf)
Метод сжатия : С потерями
Размер потока : 18,9 Мбайт (8%)
Заголовок : ENG
Язык : English
Default : Нет
Forced : Нет



Вернуться к началу
 Профиль Отправить личное сообщение  
 
   Похожие торренты   Автор   Торрент   Размер 
В этой теме нет новых непрочитанных сообщений. Майор Гром (короткометражка, приключения, фантастика, драма, боевик, 2016) WEB-DLRip

marya111

292 | 29

444.73 МБ

В этой теме нет новых непрочитанных сообщений. Кодекс чести / Code of Honor [боевик, триллер, криминал, 2016] HDRip, Mvo

salma3

23 | 7

2.18 ГБ

В этой теме нет новых непрочитанных сообщений. Тёмная волна: Край бури / Darkwave: Edge of the Storm ( короткометражка, фантастика, 2016) WEB-DLRip-AVC | L2

marya111

861 | 53

396.13 МБ

В этой теме нет новых непрочитанных сообщений. Сингулярность / Singularity ( короткометражка, фантастика, боевик, 2015) WEB-DLRip-AVC | L2

marya111

405 | 25

196.5 МБ

В этой теме нет новых непрочитанных сообщений. Отряд самоубийц / Suicide Squad ( фантастика, фэнтези, боевик, триллер, криминал, 2016) WEB-DLRip | Line

marya111

1418 | 54

1.37 ГБ

В этой теме нет новых непрочитанных сообщений. Чёрный код / Code Black [02x01-09 из 16] (2016) WEB-DLRip 720p | IdeaFilm

marya111

11 | 23

11.95 ГБ

В этой теме нет новых непрочитанных сообщений. Чёрный код / Code Black [S02] [Триллер, драма, детектив, 2016] WEB-DLRip, Mvo [IdeaFilm]

salma3

16 | 23

9.17 ГБ


Начать новую тему Ответить на тему  [ 1 сообщение ] 




Для Мосгорсуда, Роскомнадзора и рекламодателей:: mosgorsud-torrent[собачка]yandex.ru
cron