Торрент файл
скачать торрент магнет ссылка Добавлен: 02 фев 2017, 12:39
Размер: 1.46 ГБ
Сидеров: 124
Личеров: 44
Статус: (salma3)
Автор

СообщениеДобавлено: 02 фев 2017, 12:39 

Не в сети
Супермодератор
Аватара пользователя
Дата регистрации:
15 фев 2012, 16:44
Возраст: 28
Спасибо: 7290 / 2147
Сообщения: 70756
Год выпуска: 2016
Жанр: Боевик, комедия
Режиссер: Энрике Бэн

В ролях: Армандо Эрнандес, Камила Соди, Эрик Элиас, Айслинн Дербес, Омар Чапарро, Эктор Хименес, Кевин Поллак, Alejandra Guilmant, Джои Морган, Эрик Робертс

Описание:
Мексиканский коп жаждет отомстить банде наркоторговцев за смерть своей жены. Но в одиночку это будет сделать нелегко, поэтому он берет себе в «напарники» незадачливого американского хакера. Пусть он толстяк и рохля, но дело свое знает на «5+», другое дело, что всю силовую работу придется выполнять самому.



Страна: Мексика, Draco Films, Equipment Film Design
Продолжительность: 01:42:13
Перевод: Любительский (двухголосый)datynet & Galina Vasyukova

Формат:HDRip-AVC
Видео: 1024x432 (2.40:1), 23.976 fps, AVC (H.264), ~1809 kbps, 0.171 bit/pixel
Аудио: 48 kHz, AC3 Dolby Digital, 2/0 (L,R) ch, ~192 kbps avg
Субтитры: Английские (вшитые)

General
Unique ID : 68927098270804349464305409795087540090 (0x33DAE0522DBAAD297FDEECA3E47E1F7A)
Complete name : C:\Users\Юрик\Downloads\Крестные отцы HDRip (AVC)_[tfile.ru].mkv
Format : Matroska
Format version : Version 2
File size : 1.46 GiB
Duration : 1h 42mn
Overall bit rate : 2 041 Kbps
Writing application : Lavf55.12.100
Writing library : Lavf55.12.100

Video
ID : 2
Format : AVC
Format/Info : Advanced Video Codec
Format profile :
Format settings, CABAC : Yes
Format settings, ReFrames : 1 frame
Format settings, GOP : M=1, N=12
Codec ID : V_MPEG4/ISO/AVC
Duration : 1h 42mn
Bit rate : 1 809 Kbps
Width : 1 024 pixels
Height : 432 pixels
Display aspect ratio : 2.40:1
Frame rate mode : Constant
Frame rate : 23.976 fps
Color space : YUV
Chroma subsampling : 4:2:0
Bit depth : 8 bits
Scan type : Progressive
Bits/(Pixel*Frame) : 0.171
Stream size : 1.29 GiB (89%)
Default : Yes
Forced : No

Audio
ID : 1
Format : AC-3
Format/Info : Audio Coding 3
Mode extension : CM (complete main)
Format settings, Endianness : Big
Codec ID : A_AC3
Duration : 1h 42mn
Bit rate mode : Constant
Bit rate : 192 Kbps
Channel(s) : 2 channels
Channel positions : Front: L R
Sampling rate : 48.0 KHz
Bit depth : 32 bits
Compression mode : Lossy
Stream size : 140 MiB (9%)
Default : Yes
Forced : No




_________________
Проголосуй за трекер Открытый торрент трекер - RUS-MEDIA.ORG

Проголосуй Открытый торрент трекер - RUS-MEDIA.ORG


Вернуться к началу
 Профиль Отправить личное сообщение  
 
   Похожие торренты   Автор   Торрент   Размер 
В этой теме нет новых непрочитанных сообщений. Крестные отцы / Compadres [Боевик, комедия, 2016] HDRip, Dvo

salma3

80 | 31

1.46 ГБ

В этой теме нет новых непрочитанных сообщений. Крёстные отцы / The Mobfathers [комедия, криминал, 2016] BDRip 720p, Avo

salma3

21 | 3

11.93 ГБ

В этой теме нет новых непрочитанных сообщений. Отцы [01-12 из 12] [Боевик, драма, криминал, 2016] SATRip

salma3

1028 | 462

6.47 ГБ

В этой теме нет новых непрочитанных сообщений. Отцы [01-12 из 12] [Боевик, драма, криминал, 2016] HDTVRip 720p

salma3

427 | 284

13.33 ГБ

В этой теме нет новых непрочитанных сообщений. Отцы и дочери / Fathers and Daughters [Драма, 2015] HDRip, dvo

Dracon

217 | 9

1.37 ГБ

В этой теме нет новых непрочитанных сообщений. Терродактиль / Terrordactyl [боевик, комедия, 2016] HDRip, Avo

salma3

64 | 4

1.25 ГБ

В этой теме нет новых непрочитанных сообщений. По следу / Skiptrace [Боевик, комедия, 2016] HDRip, mvo

marya111

196 | 2

2.18 ГБ


Начать новую тему Ответить на тему  [ 1 сообщение ] 




Для Мосгорсуда, Роскомнадзора и рекламодателей:: mosgorsud-torrent[собачка]yandex.ru
cron
cron