Торрент файл
скачать торрент магнет ссылка Добавлен: 31 янв 2017, 18:54
Размер: 1.43 ГБ
Сидеров: 2555
Личеров: 78
Автор

СообщениеДобавлено: 31 янв 2017, 18:54 

Не в сети
Дата регистрации:
28 сен 2016, 18:10
Спасибо: 212 / 0
Сообщения: 1999
Информация о фильме
Название: Прибытие
Оригинальное название: Arrival
Год выхода: 2016
Жанр: фантастика, триллер, драма, детектив, экранизация
Режиссер: Дени Вильнёв
В ролях: Эми Адамс, Джереми Реннер, Майкл Стулбарг, Форест Уитакер, Сангита Патель, Марк О’Брайэн, Эбигейл Пнёвски, Ци Ма, Натали Тибо, Рут Чианг
О фильме:
В разных уголках планеты внезапно появляются неопознанные летающие объекты. Они мирно зависают над поверхностью и всем своим видом демонстрируют полное равнодушие к населению. Цели их визита неизвестны, язык не узнаваем и вообще никто ничего не понимает. Стремясь установить с инопланетянами контакт, и обойтись без танковых клиньев, правительство привлекает к этому крайне запутанному делу лингвиста Луизу Бэнкс и физика Яна Доннели. Им необходимо понять замыслы пришельцев до того, пока кто-нибудь из военных на почве нервного срыва не решится превратить весь мир в могильник с ядерными отходами. В основе фильма лежит повесть Теда Чана «История твоей жизни» (Story of Your Life, 1998).

Страна: США, 21 Laps Entertainment, FilmNation Entertainment, Lava Bear Films
Продолжительность: 01:56:55
Перевод: Любительский (многоголосый закадровый) Paradox&OMSKBIRD
Файл
Кодек: XviD
Качество: DVDScr
Видео: 720x304 (2.37:1), 23.976 fps, ~1419 kbps avg, 0.27 bit/pixel
Звук:
Аудио rus: 48 kHz, MPEG Layer 3, 2 ch, ~320.00 kbps avg
Субтитры: отсутствуют
Реклама: Имеется реклама от спонсора показа
Семпл
[Студия "Paradox" & Omskbird records]
• Роли озвучивали: Маргарита Корш, Максим Максимов, Павел Ярощик, Денис Строев Наталья Ланц, Семён Ващенко
• Перевод: Егор Ярославцев
• Звукорежиссер: Павел Квентов
Имеется реклама от спонсора показа
General
Complete name : F:РАЗБОРPribytie.2016.P.DVDScr.1400MB_Paradox&OMSKBIRD.avi
Format : AVI
Format/Info : Audio Video Interleave
Format profile : OpenDML
File size : 1.43 GiB
Duration : 1h 56mn
Overall bit rate : 1 746 Kbps
Writing application : Lavf55.22.100
Video
ID : 0
Format : MPEG-4 Visual
Format profile : Simple@L1
Format settings, BVOP : No
Format settings, QPel : No
Format settings, GMC : No warppoints
Format settings, Matrix : Default (H.263)
Codec ID : FMP4
Duration : 1h 56mn
Bit rate : 1 412 Kbps
Width : 720 pixels
Height : 304 pixels
Display aspect ratio : 2.35:1
Frame rate : 23.976 fps
Color space : YUV
Chroma subsampling : 4:2:0
Bit depth : 8 bits
Scan type : Progressive
Compression mode : Lossy
Bits/(Pixel*Frame) : 0.269
Stream size : 1.15 GiB (81%)
Writing library : Lavc55.45.103
Audio
ID : 1
Format : MPEG Audio
Format version : Version 1
Format profile : Layer 3
Mode : Joint stereo
Mode extension : MS Stereo
Codec ID : 55
Codec ID/Hint : MP3
Duration : 1h 56mn
Bit rate mode : Constant
Bit rate : 320 Kbps
Channel(s) : 2 channels
Sampling rate : 48.0 KHz
Compression mode : Lossy
Stream size : 268 MiB (18%)
Alignment : Aligned on interleaves
Interleave, duration : 24 ms (0.58 video frame)
Interleave, preload duration : 24 ms
Writing library : LAME3.99.5ЄЄЄЄ




реклама партнёра


Вернуться к началу
 Профиль Отправить личное сообщение  
 
   Похожие торренты   Автор   Торрент   Размер 
В этой теме нет новых непрочитанных сообщений. Прибытие / Arrival (2016) DVDScr | Line

marya111

20241 | 655

1.46 ГБ

В этой теме нет новых непрочитанных сообщений. Прибытие / Arrival (фантастика, триллер, драма, детектив, экранизация, 2016) WEB-DL 1080p | Paradox&OMSKBIRD

marya111

848 | 71

4.33 ГБ

В этой теме нет новых непрочитанных сообщений. Прибытие / Arrival [фантастика, триллер, драма, 2016] BDRip-AVC, Dub+Sub [Лицензия]

salma3

266 | 92

1.46 ГБ

В этой теме нет новых непрочитанных сообщений. Прибытие / Arrival [фантастика, триллер, драма, 2016] BDRip-AVC, Dub+Sub [Лицензия]

salma3

284 | 90

2.18 ГБ

В этой теме нет новых непрочитанных сообщений. Прибытие / Arrival [фантастика, триллер, драма, 2016] BDRip, Dub+Sub [лицензия]

salma3

799 | 163

1.46 ГБ

В этой теме нет новых непрочитанных сообщений. Прибытие / Arrival [фантастика, триллер, драма, детектив, 2016] HDRip, Dub [iTunes]

Dracon

246 | 143

1.46 ГБ

В этой теме нет новых непрочитанных сообщений. Прибытие / Arrival [фантастика, триллер, драма, детектив, экранизация, 2016] WEB-DLRip, Mvo

marya111

2 | 2

1.39 ГБ


Начать новую тему Ответить на тему  [ 1 сообщение ] 




Для Мосгорсуда, Роскомнадзора и рекламодателей:: mosgorsud-torrent[собачка]yandex.ru