Торрент файл
скачать торрент магнет ссылка Добавлен: 28 янв 2017, 13:32
Размер: 2.47 ГБ
Сидеров: 26
Личеров: 10
Статус: (salma3)
Автор

СообщениеДобавлено: 28 янв 2017, 13:32 

В сети
Супермодератор
Аватара пользователя
Дата регистрации:
15 фев 2012, 16:44
Возраст: 28
Спасибо: 7223 / 2147
Сообщения: 67717
Год выхода: 1987
Жанр: драма, мелодрама, комедия
Режиссер: Чарльз Шайер

В ролях: Дайан Китон, Сэм Шепард, Харольд Рэмис, Кристина Кеннеди, Мишель Кеннеди, Сэм Уонамейкер, Джеймс Спэйдер, Пэт Хингл, Бритт Лич, Линда Эллерби, Ким Себастьян, Мэри Гросс, Патриция Эстрин, Элизабет Беннетт, Питер Элблинг, Шера Данезе, Беверли Тодд, Анхель Давид, Николас Каскон, Уильям Френкфазер

О фильме:
Деловая женщина, безумно занятая на работе, вынуждена круто изменить свою жизнь, когда у нее на руках оказывается крохотный плачущий комочек в пеленках. Она мечется между младенцем, боссом и «другом семьи» и находит успокоение, только уехав за город, где встречает замечательного человека — местного ветеринара. Среди бесконечных хлопот о ребенке наконец-то появляется время для любви.



Страна: США
Продолжительность: 01:50:18
Перевод: Профессиональный [многоголосый]

Файл
Кодек: x264
Качество: WEB-DL 720p [NTb]
Видео: MPEG-4 AVC, 3009 Кбит/с, 1280x720, 23.976 кадр/с
Аудио #1: AC3, 2 ch, 128 Кбит/с | Русский
Аудио #2: AAC, 2 ch, 64 Кбит/с | Aнглийский
Субтитры: Английские

Общее
Уникальный идентификатор : 230679814808866341862183459782177458100 (0xAD8B50F86BE10B9985134C06BB1A07B4)
Полное имя : Baby.Boom.1987.WEB-DL.720p.mkv
Формат : Matroska
Версия формата : Version 4 / Version 2
Размер файла : 2,47 Гбайт
Продолжительность : 1 ч. 50 м.
Общий поток : 3203 Кбит/сек
Название фильма : Baby.Boom.1987
Дата кодирования : UTC 2017-01-25 16:41:11
Программа кодирования : mkvmerge v9.2.0 ('Photograph') 32bit
Библиотека кодирования : libebml v1.3.3 + libmatroska v1.4.4
Обложка : Yes
Attachments : cover.jpg
Видео
Идентификатор : 1
Формат : AVC
Формат/Информация : Advanced Video Codec
Профиль формата : High@L3.1
Параметр CABAC формата : Да
Параметр ReFrames формата : 5 кадров
Идентификатор кодека : V_MPEG4/ISO/AVC
Продолжительность : 1 ч. 50 м.
Битрейт : 3009 Кбит/сек
Ширина : 1280 пикселей
Высота : 720 пикселей
Соотношение сторон : 16:9
Режим частоты кадров : Постоянный
Частота кадров : 23,976 (24000/1001) кадра/сек
Цветовое пространство : YUV
Субдискретизация насыщенности : 4:2:0
Битовая глубина : 8 бит
Тип развёртки : Прогрессивная
Бит/(Пиксели*Кадры) : 0.136
Размер потока : 2,32 Гбайт (94%)
Заголовок : Baby.Boom
Default : Да
Forced : Нет
Аудио #1
Идентификатор : 2
Формат : AC-3
Формат/Информация : Audio Coding 3
Расширение режима : CM (complete main)
Параметр Endianness формата : Big
Идентификатор кодека : A_AC3
Продолжительность : 1 ч. 50 м.
Вид битрейта : Постоянный
Битрейт : 128 Кбит/сек
Каналы : 2 канала
Расположение каналов : Front: L R
Частота : 48,0 КГц
Частота кадров : 31,250 кадров/сек (1536 spf)
Битовая глубина : 16 бит
Метод сжатия : С потерями
Размер потока : 101 Мбайт (4%)
Язык : Russian
Default : Да
Forced : Нет
Аудио #2
Идентификатор : 3
Формат : AAC
Формат/Информация : Advanced Audio Codec
Профиль формата : HE-AAC / LC
Идентификатор кодека : A_AAC
Продолжительность : 1 ч. 50 м.
Битрейт : 64,0 Кбит/сек
Каналы : 2 канала
Расположение каналов : Front: L R
Частота : 48,0 КГц / 24,0 КГц
Частота кадров : 23,438 кадра/сек (1024 spf)
Метод сжатия : С потерями
Размер потока : 50,5 Мбайт (2%)
Язык : English
Default : Нет
Forced : Нет
Текст
Идентификатор : 4
Формат : UTF-8
Идентификатор кодека : S_TEXT/UTF8
Идентификатор кодека/Информация : UTF-8 Plain Text
Продолжительность : 1 ч. 44 м.
Битрейт : 81 бит/сек
Count of elements : 1902
Размер потока : 62,5 Кбайт (0%)
Язык : English
Default : Нет
Forced : Нет




_________________
Проголосуй за трекер Открытый торрент трекер - RUS-MEDIA.ORG

Проголосуй Открытый торрент трекер - RUS-MEDIA.ORG


Вернуться к началу
 Профиль Отправить личное сообщение  
 
   Похожие торренты   Автор   Торрент   Размер 
В этой теме нет новых непрочитанных сообщений. Бэби-бум / Baby Boom [Комедия, Мелодрама, 1987] WEBRip 1080p, Mvo+Sub

salma3

10 | 14

11.29 ГБ

В этой теме нет новых непрочитанных сообщений. Трое мужчин и младенец / Three Men and a Baby [Комедия, Драма, Семейный, 1987] WEB-DLRip 720p, Dub

salma3

0 | 0

4.37 ГБ

В этой теме нет новых непрочитанных сообщений. Детка, детка, детка / Baby, Baby, Baby (Брайан Клагман / Brian Klugman) [2015г., драма, мелодрама, комедия, WEB-DLRip] MVO

Alfredovich

174 | 29

745.79 МБ

В этой теме нет новых непрочитанных сообщений. Трое мужчин и младенец / Three Men and a Baby [комедия, драма, семейный, 1987] WEB-DL 1080p, Mvo

salma3

0 | 0

11.51 ГБ

В этой теме нет новых непрочитанных сообщений. Трое мужчин и младенец / Three Men and a Baby [комедия, драма, семейный, 1987] WEB-DL 1080p, Mvo

salma3

0 | 0

11.42 ГБ

В этой теме нет новых непрочитанных сообщений. Трое мужчин и младенец / Three Men and a Baby [комедия, драма, семейный, 1987] WEB-DLRip-AVC, Mvo

salma3

0 | 0

2.18 ГБ

В этой теме нет новых непрочитанных сообщений. MeloneChallenge 17 03 21 Wendy Moon Baby Boom Cumshot XXX 1080p MP4-KTR

salma3

0 | 0

1.46 ГБ


Начать новую тему Ответить на тему  [ 1 сообщение ] 




Для Мосгорсуда, Роскомнадзора и рекламодателей:: mosgorsud-torrent[собачка]yandex.ru
cron