Торрент файл
скачать торрент магнет ссылка Добавлен: 27 янв 2017, 19:11
Размер: 1.46 ГБ
Сидеров: 152
Личеров: 19
Автор

СообщениеДобавлено: 27 янв 2017, 19:11 

Не в сети
Дата регистрации:
28 сен 2016, 18:10
Спасибо: 231 / 0
Сообщения: 1989

Информация о фильме
Название: Расплата
Оригинальное название: The Accountant
Год выпуска: 2016
Жанр: Боевик, триллер, драма, криминал
Режиссер: Гэвин О’Коннор
В ролях: Бен Аффлек, Анна Кендрик, Дж.К. Симмонс, Джон Бернтал, Джеффри Тэмбор, Синтия Аддай-Робинсон, Джон Литгоу, Джин Смарт, Энди Умбергер, Элисон Райт
О фильме:
Лента расскажет историю математического гения Кристиана Вульфа, который подрабатывает аудитором для самых опасных преступных организаций. Когда ему «на хвост» садится отдел по борьбе с преступностью Министерства финансов во главе с Рэем Кингом Кристиан решает найти себе законопослушного клиента и проводит аудит в компании по производству новейшей робототехники, где сотрудница финансового отдела обнаружила «нестыковочку» в миллионы долларов. Но стоит Кристиану взяться за счета и выйти на след, как в деле начинают появляться жертвы.

Страна: США
Студия: Electric City Entertainment, RatPac-Dune Entertainment, Warner Bros. Pictures, Zero Gravity Management
Продолжительность: 02:07:54
Перевод: Дублированный | BD CEE
Файл
Кодек: x264
Качество: BDRip-AVC
Видео: MPEG-4 AVC, 1439 Кбит/с, 720x302
Аудио: Русский (AC3, 2 ch, 192 Кбит/с)
Субтитры: Русские, английские
Общее
Уникальный идентификатор : 241323928455502940824516405053622000048 (0xB58D4C4A7245F2CA941F9B8950BB19B0)
Полное имя : D:ВидеоThe.Accountant.2016.BDRip-AVC 1.46 .OlLanDGroup..mkv
Формат : Matroska
Версия формата : Version 4 / Version 2
Размер файла : 1,46 Гбайт
Продолжительность : 2 ч. 7 м.
Общий поток : 1630 Кбит/сек
Название фильма : The.Accountant.2016.BDRip-AVC 1.46 .OlLandGroup
Дата кодирования : UTC 2017-01-22 18:33:58
Программа кодирования : mkvmerge v9.8.0 ('Kuglblids') 64bit
Библиотека кодирования : libebml v1.3.4 + libmatroska v1.4.5
DURATION : 01:59:45.961000000
NUMBER_OF_FRAMES : 1691
NUMBER_OF_BYTES : 53531
_STATISTICS_WRITING_APP : mkvmerge v9.8.0 ('Kuglblids') 64bit
_STATISTICS_WRITING_DATE_UTC : 2017-01-22 18:33:58
_STATISTICS_TAGS : BPS DURATION NUMBER_OF_FRAMES NUMBER_OF_BYTES
Видео
Идентификатор : 1
Формат : AVC
Формат/Информация : Advanced Video Codec
Профиль формата : High@L4.1
Параметр CABAC формата : Да
Параметр ReFrames формата : 10 кадров
Идентификатор кодека : V_MPEG4/ISO/AVC
Продолжительность : 2 ч. 7 м.
Битрейт : 1439 Кбит/сек
Ширина : 720 пикселей
Высота : 302 пикселя
Соотношение сторон : 2,40:1
Режим частоты кадров : Постоянный
Частота кадров : 23,976 кадра/сек
Цветовое пространство : YUV
Субдискретизация насыщенности : 4:2:0
Битовая глубина : 8 бит
Тип развёртки : Прогрессивная
Бит/(Пиксели*Кадры) : 0.276
Размер потока : 1,26 Гбайт (86%)
Заголовок : by Vovan366
Библиотека кодирования : x264 core 146 r2538 121396c
Настройки программы : cabac=1 / ref=10 / deblock=1:-3:-3 / analyse=0x3:0x113 / me=umh / subme=11 / psy=1 / psy_rd=1.00:0.05 / mixed_ref=1 / me_range=48 / chroma_me=1 / trellis=2 / 8x8dct=1 / cqm=0 / deadzone=21,11 / fast_pskip=0 / chroma_qp_offset=-3 / threads=6 / lookahead_threads=1 / sliced_threads=0 / nr=0 / decimate=0 / interlaced=0 / bluray_compat=0 / constrained_intra=0 / bframes=10 / b_pyramid=2 / b_adapt=2 / b_bias=0 / direct=3 / weightb=1 / open_gop=0 / weightp=2 / keyint=240 / keyint_min=23 / scenecut=40 / intra_refresh=0 / rc_lookahead=40 / rc=2pass / mbtree=0 / bitrate=1439 / ratetol=1.0 / qcomp=0.60 / qpmin=0 / qpmax=69 / qpstep=4 / cplxblur=20.0 / qblur=0.5 / vbv_maxrate=14000 / vbv_bufsize=14000 / nal_hrd=none / filler=0 / ip_ratio=1.40 / pb_ratio=1.30 / aq=1:1.00
Язык : English
Default : Да
Forced : Нет
Основные цвета : BT.709
Характеристики трансфера : BT.709
Коэффициенты матрицы : BT.709
Аудио
Идентификатор : 2
Формат : AC-3
Формат/Информация : Audio Coding 3
Расширение режима : CM (complete main)
Параметр Endianness формата : Big
Идентификатор кодека : A_AC3
Продолжительность : 2 ч. 7 м.
Вид битрейта : Постоянный
Битрейт : 192 Кбит/сек
Каналы : 2 канала
Расположение каналов : Front: L R
Частота : 48,0 КГц
Битовая глубина : 16 бит
Метод сжатия : С потерями
Размер потока : 176 Мбайт (12%)
Заголовок : Лицензия
Язык : Russian
Default : Да
Forced : Нет
Текст #1
Идентификатор : 3
Формат : UTF-8
Идентификатор кодека : S_TEXT/UTF8
Идентификатор кодека/Информация : UTF-8 Plain Text
Заголовок : Full
Язык : Russian
Default : Нет
Forced : Нет
Текст #2
Идентификатор : 4
Формат : UTF-8
Идентификатор кодека : S_TEXT/UTF8
Идентификатор кодека/Информация : UTF-8 Plain Text
Заголовок : SDH
Язык : Russian
Default : Нет
Forced : Нет
Текст #3
Идентификатор : 5
Формат : UTF-8
Идентификатор кодека : S_TEXT/UTF8
Идентификатор кодека/Информация : UTF-8 Plain Text
Заголовок : Full
Язык : English
Default : Нет
Forced : Нет
Текст #4
Идентификатор : 6
Формат : UTF-8
Идентификатор кодека : S_TEXT/UTF8
Идентификатор кодека/Информация : UTF-8 Plain Text
Заголовок : SDH
Язык : English
Default : Нет
Forced : Нет
Меню
00:00:00.000 : en:00:00:00.000
00:13:01.447 : en:00:13:01.447
00:20:36.277 : en:00:20:36.277
00:29:30.394 : en:00:29:30.394
00:38:44.656 : en:00:38:44.656
00:49:33.679 : en:00:49:33.679
01:00:05.435 : en:01:00:05.435
01:13:39.707 : en:01:13:39.707
01:25:57.069 : en:01:25:57.069
01:39:15.658 : en:01:39:15.658
01:54:31.156 : en:01:54:31.156
02:01:40.251 : en:02:01:40.251



Релиз от:



Скачать книги и аудио книги через торрент


Вернуться к началу
 Профиль Отправить личное сообщение  
 
   Похожие торренты   Автор   Торрент   Размер 
В этой теме нет новых непрочитанных сообщений. Расплата / The Accountant [боевик, триллер, драма, криминал, 2016] BDRip-AVC, Dub [лицензия]

salma3

150 | 30

2.91 ГБ

В этой теме нет новых непрочитанных сообщений. Расплата / The Accountant (2016) HDRip-AVC | Лицензия

marya111

170 | 18

3.08 ГБ

В этой теме нет новых непрочитанных сообщений. Расплата / The Accountant (2016) BDRip от HQ-ViDEO | Лицензия

marya111

174 | 22

2.18 ГБ

В этой теме нет новых непрочитанных сообщений. Расплата / The Accountant ( боевик, триллер, драма, криминал, 2016) BDRip-AVC | iTunes

marya111

1019 | 92

1.46 ГБ

В этой теме нет новых непрочитанных сообщений. Расплата / The Accountant [боевик, триллер, драма, криминал, 2016] BDRip, Dub [лицензия]

salma3

1692 | 184

1.46 ГБ

В этой теме нет новых непрочитанных сообщений. Расплата / The Accountant [боевик, триллер, драма, криминал, 2016] BDRip, Dub [лицензия]

salma3

524 | 68

2.18 ГБ

В этой теме нет новых непрочитанных сообщений. Расплата / The Accountant (боевик, триллер, драма, криминал, 2016) BDRip от HQCLUB | D | Лицензия

marya111

118 | 13

2.18 ГБ


Начать новую тему Ответить на тему  [ 1 сообщение ] 




Для Мосгорсуда, Роскомнадзора и рекламодателей:: mosgorsud-torrent[собачка]yandex.ru
cron