Торрент файл
скачать торрент магнет ссылка Добавлен: 27 янв 2017, 19:10
Размер: 2.79 ГБ
Сидеров: 96
Личеров: 5
Автор

СообщениеДобавлено: 27 янв 2017, 19:10 

Не в сети
Дата регистрации:
28 сен 2016, 18:10
Спасибо: 213 / 0
Сообщения: 1999

Информация о фильме
Название: Франц
Оригинальное название: Frantz
Год выпуска: 2016
Страна: Франция, Германия
Жанр: Драма, мелодрама, арт-хаус

Перевод: Дубляж - [iTunes]
Субтитры: хардсаб
Продолжительность: 01:53:40

Режиссер: Франсуа Озон
В ролях: Пьер Нинэ (Adrien Rivoire), Паула Бир (Anna), Эрнст Штёцнер (Doktor Hans Hoffmeister), Мария Грубер (Magda Hoffmeister), Йохан фон Бюлов (Kreutz), Антон фон Люк (Frantz Hoffmeister), Сирил Клер (La mère d'Adrien), Элис де Ланкесэ (Fanny), Аксель Вандтке (Le réceptionniste de l'hôtel), Райнер Эггер (Le gardien du cimetière allemand), Rainer Silberschneider (Le vendeur de la robe), Мерлин Розе (Le jeune homme ivre)


Описание:
Анна и Франц жили в небольшом немецком городе, были молоды, влюблены друг в друга и собирались пожениться. Но в тихое счастье двоих вмешался большой сумасшедший мир - шла Первая мировая война, Франца отправили на фронт во Францию, где он, 23-летний скрипач, обожавший стихи Верлена, погиб. Война закончилась, а жизнь Анны теперь свелась к поддержке пожилых родителей любимого и посещениям кладбища. Однажды там она видит незнакомого человека, который принес цветы на могилу Франца. Он, Адриен, - француз, а, значит, враг. Но встреча с ним переворачивает ее жизнь...

Рейтинг:


Качество: BDRip-AVC
Формат: MKV
Видео: AVC, 1024x428 (2.40:1), 2686 kbps, 24 fps, 0,255 bpp
Аудио №1: русский / AC3 / 5.1 / 48 kHz / 384 kbps /
Аудио №2: французский / AC3 / 5.1 / 48 kHz / 448 kbps /
Навигация по главам: есть


Релиз от:


General
Unique ID : 217569694583009998586853851606998567409 (0xA3AE66237A855B95906A8C04CDB3C9F1)
Complete name : D:downloadFrantz.2016.BDRip-AVC by schultz R.G.Resident.mkv
Format : Matroska
Format version : Version 4 / Version 2
File size : 2.79 GiB
Duration : 1 h 53 min
Overall bit rate : 3 511 kb/s
Encoded date : UTC 2017-01-22 16:08:12
Writing application : mkvmerge v8.9.0 ('Father Daughter') 64bit
Writing library : libebml v1.3.3 + libmatroska v1.4.4
Video
ID : 1
Format : AVC
Format/Info : Advanced Video Codec
Format profile : High@L4.1
Format settings, CABAC : Yes
Format settings, ReFrames : 12 frames
Codec ID : V_MPEG4/ISO/AVC
Duration : 1 h 53 min
Bit rate : 2 686 kb/s
Width : 1 024 pixels
Height : 428 pixels
Display aspect ratio : 2.40:1
Frame rate mode : Constant
Frame rate : 24.000 FPS
Color space : YUV
Chroma subsampling : 4:2:0
Bit depth : 8 bits
Scan type : Progressive
Bits/(Pixel*Frame) : 0.255
Stream size : 2.13 GiB (76%)
Writing library : x264 core 146 r2538 121396c
Encoding settings : cabac=1 / ref=12 / deblock=1:-3:-3 / analyse=0x3:0x113 / me=umh / subme=11 / psy=1 / psy_rd=1.00:0.00 / mixed_ref=1 / me_range=48 / chroma_me=1 / trellis=2 / 8x8dct=1 / cqm=0 / deadzone=21,11 / fast_pskip=0 / chroma_qp_offset=-2 / threads=12 / lookahead_threads=3 / sliced_threads=0 / nr=0 / decimate=0 / interlaced=0 / bluray_compat=0 / constrained_intra=0 / bframes=11 / b_pyramid=2 / b_adapt=2 / b_bias=0 / direct=3 / weightb=1 / open_gop=0 / weightp=2 / keyint=240 / keyint_min=24 / scenecut=40 / intra_refresh=0 / rc_lookahead=40 / rc=2pass / mbtree=1 / bitrate=2686 / ratetol=1.0 / qcomp=0.60 / qpmin=0 / qpmax=69 / qpstep=4 / cplxblur=20.0 / qblur=0.5 / vbv_maxrate=50000 / vbv_bufsize=62500 / nal_hrd=none / filler=0 / ip_ratio=1.40 / aq=1:1.00
Language : English
Default : Yes
Forced : No
Audio #1
ID : 2
Format : AC-3
Format/Info : Audio Coding 3
Mode extension : CM (complete main)
Format settings, Endianness : Big
Codec ID : A_AC3
Duration : 1 h 53 min
Bit rate mode : Constant
Bit rate : 384 kb/s
Channel(s) : 6 channels
Channel positions : Front: L C R, Side: L R, LFE
Sampling rate : 48.0 kHz
Frame rate : 31.250 FPS (1536 spf)
Compression mode : Lossy
Stream size : 312 MiB (11%)
Language : Russian
Default : Yes
Forced : No
Audio #2
ID : 3
Format : AC-3
Format/Info : Audio Coding 3
Mode extension : CM (complete main)
Format settings, Endianness : Big
Codec ID : A_AC3
Duration : 1 h 53 min
Bit rate mode : Constant
Bit rate : 448 kb/s
Channel(s) : 6 channels
Channel positions : Front: L C R, Side: L R, LFE
Sampling rate : 48.0 kHz
Frame rate : 31.250 FPS (1536 spf)
Compression mode : Lossy
Stream size : 364 MiB (13%)
Language : French
Default : No
Forced : No
Menu
00:00:00.000 : en:Chapter 1





реклама партнёра


Вернуться к началу
 Профиль Отправить личное сообщение  
 
   Похожие торренты   Автор   Торрент   Размер 
В этой теме нет новых непрочитанных сообщений. Франц / Frantz [Драма, мелодрама, арт-хаус, 2016] WEB-DLRip, Dub [iTunes]

salma3

1277 | 146

1.46 ГБ

В этой теме нет новых непрочитанных сообщений. Франц / Frantz [Драма, мелодрама, арт-хаус, 2016] WEB-DL 720p, Dub [iTunes]

salma3

335 | 48

3.57 ГБ

В этой теме нет новых непрочитанных сообщений. Франц / Frantz [Драма, мелодрама, арт-хаус, 2016] WEB-DLRip, Dub [iTunes]

salma3

380 | 51

746.57 МБ

В этой теме нет новых непрочитанных сообщений. Полный расколбас / Sausage Party (2016) BDRip-AVC от R.G.Resident | iTunes

marya111

0 | 0

1.37 ГБ

В этой теме нет новых непрочитанных сообщений. Хуже, чем ложь / Misconduct (триллер, драма, 2016) BDRip-AVC от R.G.Resident | iTunes

marya111

476 | 41

1.73 ГБ

В этой теме нет новых непрочитанных сообщений. Механик: Воскрешение / Mechanic: Resurrection (боевик, триллер, криминал, 2016) BDRip-AVC от R.G.Resident | iTunes

marya111

1519 | 192

2.23 ГБ

В этой теме нет новых непрочитанных сообщений. Моя большая греческая свадьба 2 / My Big Fat Greek Wedding 2 (мелодрама, комедия, семейный, 2016) BDRip-AVC от R.G.Resident | iTunes

marya111

211 | 48

2.17 ГБ


Начать новую тему Ответить на тему  [ 1 сообщение ] 




Для Мосгорсуда, Роскомнадзора и рекламодателей:: mosgorsud-torrent[собачка]yandex.ru
cron