Торрент файл
скачать торрент магнет ссылка Добавлен: 22 янв 2017, 12:56
Размер: 1.47 ГБ
Сидеров: 26
Личеров: 5
Статус: (salma3)
Автор

СообщениеДобавлено: 22 янв 2017, 12:56 

Не в сети
Супермодератор
Аватара пользователя
Дата регистрации:
15 фев 2012, 16:44
Возраст: 28
Спасибо: 6642 / 2146
Сообщения: 45664
Производство: США / Hollywood Pictures, Amblin Entertainment, Tangled Web Productions
Жанр: Ужасы, Триллер
Продолжительность: 01:49:42
Перевод: Авторский (одноголосый, закадровый) В.Дохалов
Субтитры: Отсутствуют
Режиссер: Фрэнк Маршалл

Актеры: Джефф Дэниелс, Харли Джейн Козак, Джон Гудман, Джулиан Сэндс, Стюарт Пэнкин, Брайан МакНамара, Марк Л. Тейлор, Генри Джонс, Питер Джейсон, Джеймс Хэнди

Описание:
В душе каждого живет неуправляемый первобытный страх. И однажды человеку суждено столкнуться с ним лицом к лицу. Доктор Росс Дженнингс страдает арахнофобией, экзотическим заболеванием, связанным с боязнью пауков. Он перебирается в маленький провинциальный городок в надежде на тихую и спокойную жизнь. Но по роковой случайности, из южноамериканских джунглей туда попадает смертоносный паук.

Качество видео: HDRip
Видео: 720x400, 23.976 fps, XviD build 73 ~1457 kbps, 0.21 bit/pixel
Аудио: 48 kHz, AC3l, 6 ch, ~448 kbps

Формат : AVI
Формат/Информация : Audio Video Interleave
Размер файла : 1,47 Гбайт
Продолжительность : 1 ч. 49 м.
Общий поток : 1915 Кбит/сек
Программа кодирования : VirtualDubMod 1.5.10.3 | www.virtualdub-fr.org || (build 2550/release)
Библиотека кодирования : VirtualDubMod build 2550/release
Видео
Идентификатор : 0
Формат : MPEG-4 Visual
Профиль формата : Advanced Simple@L5
Параметр BVOP формата : 1
Параметр QPel формата : Нет
Параметр GMC формата : Без точки перехода
Параметр матрицы формата : Выборочная
Идентификатор кодека : XVID
Идентификатор кодека/Подсказка : XviD
Продолжительность : 1 ч. 49 м.
Битрейт : 1458 Кбит/сек
Ширина : 720 пикселей
Высота : 400 пикселей
Соотношение сторон : 16:9
Частота кадров : 23,976 (24000/1001) кадра/сек
Цветовое пространство : YUV
Субдискретизация насыщенности : 4:2:0
Битовая глубина : 8 бит
Тип развёртки : Прогрессивная
Метод сжатия : С потерями
Бит/(Пиксели*Кадры) : 0.211
Размер потока : 1,12 Гбайт (76%)
Библиотека кодирования : XviD 73
Аудио
Идентификатор : 1
Формат : AC-3
Формат/Информация : Audio Coding 3
Расширение режима : CM (complete main)
Параметр Endianness формата : Big
Идентификатор кодека : 2000
Продолжительность : 1 ч. 49 м.
Вид битрейта : Постоянный
Битрейт : 448 Кбит/сек
Каналы : 6 каналов
Расположение каналов : Front: L C R, Side: L R, LFE
Частота : 48,0 КГц
Частота кадров : 31,250 кадров/сек (1536 spf)
Битовая глубина : 16 бит
Метод сжатия : С потерями
Размер потока : 351 Мбайт (23%)
Выравнивание : Разделение по промежуткам
Продолжительность промежутка : 42 мс. (1,00 видеокадр)
Время предзагрузки промежутка : 500 мс.


_________________
Проголосуй за трекер Открытый торрент трекер - RUS-MEDIA.ORG

Проголосуй Открытый торрент трекер - RUS-MEDIA.ORG



реклама партнёра


Вернуться к началу
 Профиль Отправить личное сообщение  
 
   Похожие торренты   Автор   Торрент   Размер 
В этой теме нет новых непрочитанных сообщений. Боязнь пауков / Arachnophobia [ужасы, фэнтези, триллер, комедия, 1990] HDRip-AVC, Mvo

salma3

16 | 5

744.11 МБ

В этой теме нет новых непрочитанных сообщений. Боязнь пауков / Arachnophobia [ужасы, фэнтези, триллер, комедия, 1990] BDRip 720p, Mvo

salma3

23 | 10

6.29 ГБ

В этой теме нет новых непрочитанных сообщений. Страх клоунов / Боязнь клоунов / Fear of Clowns [Ужасы, триллер, 2004] DVDRip, Dvo

salma3

117 | 41

703.58 МБ

В этой теме нет новых непрочитанных сообщений. Атака пауков / Eight Legged Freaks [ужасы, фантастика, боевик, 2002] HDTVRip-AVC, Dub

salma3

23 | 4

744.05 МБ

В этой теме нет новых непрочитанных сообщений. Вторжение гигантских пауков / The Giant Spider Invasion [ужасы, фантастика, 1975] DVDRip, Avo

salma3

1 | 3

1.46 ГБ

В этой теме нет новых непрочитанных сообщений. Сингенор / Syngenor [ужасы, фантастика, 1990] HDRip, Dvo

salma3

75 | 7

1.46 ГБ

В этой теме нет новых непрочитанных сообщений. Ночная смена / Graveyard Shift [ужасы, 1990] HDRip-AVC, Mvo

salma3

4 | 2

745.86 МБ


Начать новую тему Ответить на тему  [ 1 сообщение ] 




Для Мосгорсуда, Роскомнадзора и рекламодателей:: mosgorsud-torrent[собачка]yandex.ru