Торрент файл
скачать торрент магнет ссылка Добавлен: 22 янв 2017, 12:51
Размер: 2.08 ГБ
Сидеров: 36
Личеров: 8
Статус: (salma3)
Автор

СообщениеДобавлено: 22 янв 2017, 12:51 

Не в сети
Супермодератор
Аватара пользователя
Дата регистрации:
15 фев 2012, 16:44
Возраст: 28
Спасибо: 6920 / 2147
Сообщения: 52783
Год выхода: 1965
Жанр: Вестерн, Драма
Режиссер: Сидни В. Пинк

В ролях: Рори Кэлхун, Альдо Самбрель, Джеймс Филбрук, Лео Анчориз, Тодд Мартин, Жорж Риго, Сильвия Солар, Брюс Талбот, Аксель Андерсон, Фернандо Бильбао

О фильме:
Гражданская война закончилась и демобилизованные солдаты союза едут в Санта Фе, чтобы получить землю и начать новую жизнь. Но внезапно на их пути появляются отряд конфедератов, куча золота и кровожадные индейцы. Всё это переплетается в опасный клубок, выбраться из которого сможет не каждый.



Страна: Испания, США
Продолжительность: 01:31:17
Перевод: Любительский (двухголосый закадровый) - Сергей Кудрявцев и Елена
Гончарова

Файл
Кодек: AVC
Качество: DVDRip-AVC
Видео: h.264, 720x440@1024x440, 2806 kbps, 25 fps
Звук #1: Русский: AC3, ~192 kbps, 2.0 channels, 48000 Hz
Звук #2: Английский: AC3, ~192 kbps, 2.0 channels, 48000 Hz
Субтитры: Русские

Семпл

Общее
Уникальный идентификатор : 214553605894472087241754948695208460766 (0xA169857C3AC24F72BF34B89C270F81DE)
Полное имя : E:ТоррентFinger.on.the.Trigger.1965.DVDRip.x264.DVO.mkv
Формат : Matroska
Версия формата : Version 2
Размер файла : 2,08 Гбайт
Продолжительность : 1 ч. 31 м.
Общий поток : 3255 Кбит/сек
Дата кодирования : UTC 2017-01-21 05:50:42
Программа кодирования : mkvmerge v5.6.0 ('Kenya Kane') built on Jun 29 2012 15:01:44
Библиотека кодирования : libebml v1.2.3 + libmatroska v1.3.0
Видео
Идентификатор : 1
Формат : AVC
Формат/Информация : Advanced Video Codec
Профиль формата : High@L4.1
Параметр CABAC формата : Да
Параметр ReFrames формата : 7 кадров
Режим смешивания : Header stripping
Идентификатор кодека : V_MPEG4/ISO/AVC
Продолжительность : 1 ч. 31 м.
Битрейт : 2806 Кбит/сек
Ширина : 720 пикселей
Высота : 440 пикселей
Соотношение сторон : 2,35:1
Режим частоты кадров : Постоянный
Частота кадров : 25,000 кадров/сек
Цветовое пространство : YUV
Субдискретизация насыщенности : 4:2:0
Битовая глубина : 8 бит
Тип развёртки : Прогрессивная
Бит/(Пиксели*Кадры) : 0.354
Размер потока : 1,79 Гбайт (86%)
Заголовок : Finger on the Trigger
Библиотека кодирования : x264 core 148 r2638 7599210
Настройки программы : cabac=1 / ref=7 / deblock=1:-3:-3 / analyse=0x3:0x133 / me=umh / subme=11 / psy=0 / mixed_ref=0 / me_range=24 / chroma_me=1 / trellis=2 / 8x8dct=1 / cqm=0 / deadzone=6,6 / fast_pskip=0 / chroma_qp_offset=0 / threads=6 / lookahead_threads=1 / sliced_threads=0 / nr=0 / decimate=0 / interlaced=0 / bluray_compat=0 / constrained_intra=0 / bframes=10 / b_pyramid=2 / b_adapt=2 / b_bias=0 / direct=3 / weightb=1 / open_gop=0 / weightp=2 / keyint=250 / keyint_min=25 / scenecut=40 / intra_refresh=0 / rc_lookahead=60 / rc=crf / mbtree=0 / crf=16.0 / qcomp=0.80 / qpmin=0 / qpmax=69 / qpstep=4 / vbv_maxrate=62500 / vbv_bufsize=78125 / crf_max=0.0 / nal_hrd=none / filler=0 / ip_ratio=1.10 / pb_ratio=1.10 / aq=1:0.50
Язык : English
Default : Да
Forced : Нет
Statistics Tags Issue : mkvmerge v9.5.0 ('Quiet Fire') 64bit 2016-12-15 05:36:49 / mkvmerge v5.6.0 ('Kenya Kane') built on Jun 29 2012 15:01:44 2017-01-21 05:50:42
FromStats_BitRate : 2870323
FromStats_Duration : 01:31:17.560000000
FromStats_FrameCount : 136939
FromStats_StreamSize : 1965296335
Аудио #1
Идентификатор : 2
Формат : AC-3
Формат/Информация : Audio Coding 3
Расширение режима : CM (complete main)
Параметр Endianness формата : Big
Режим смешивания : Header stripping
Идентификатор кодека : A_AC3
Продолжительность : 1 ч. 31 м.
Вид битрейта : Постоянный
Битрейт : 192 Кбит/сек
Каналы : 2 канала
Расположение каналов : Front: L R
Частота : 48,0 КГц
Частота кадров : 31,250 кадров/сек (1536 spf)
Метод сжатия : С потерями
Размер потока : 125 Мбайт (6%)
Заголовок : DVO (Сергей Кудрявцев и Елена Гончарова)
Язык : Russian
Default : Да
Forced : Нет
Statistics Tags Issue : mkvmerge v9.5.0 ('Quiet Fire') 64bit 2016-12-15 05:36:49 / mkvmerge v5.6.0 ('Kenya Kane') built on Jun 29 2012 15:01:44 2017-01-21 05:50:42
FromStats_BitRate : 192000
FromStats_Duration : 01:31:17.504000000
FromStats_FrameCount : 171172
FromStats_StreamSize : 131460096
Аудио #2
Идентификатор : 3
Формат : AC-3
Формат/Информация : Audio Coding 3
Расширение режима : CM (complete main)
Параметр Endianness формата : Big
Режим смешивания : Header stripping
Идентификатор кодека : A_AC3
Продолжительность : 1 ч. 31 м.
Вид битрейта : Постоянный
Битрейт : 192 Кбит/сек
Каналы : 2 канала
Расположение каналов : Front: L R
Частота : 48,0 КГц
Частота кадров : 31,250 кадров/сек (1536 spf)
Метод сжатия : С потерями
Размер потока : 125 Мбайт (6%)
Язык : English
Default : Нет
Forced : Нет
Statistics Tags Issue : mkvmerge v9.5.0 ('Quiet Fire') 64bit 2016-12-15 05:36:49 / mkvmerge v5.6.0 ('Kenya Kane') built on Jun 29 2012 15:01:44 2017-01-21 05:50:42
FromStats_BitRate : 192000
FromStats_Duration : 01:31:17.504000000
FromStats_FrameCount : 171172
FromStats_StreamSize : 131460096
Текст
Идентификатор : 4
Формат : UTF-8
Идентификатор кодека : S_TEXT/UTF8
Идентификатор кодека/Информация : UTF-8 Plain Text
Язык : Russian
Default : Нет
Forced : Нет
Statistics Tags Issue : mkvmerge v9.5.0 ('Quiet Fire') 64bit 2016-12-15 05:36:49 / mkvmerge v5.6.0 ('Kenya Kane') built on Jun 29 2012 15:01:44 2017-01-21 05:50:42
FromStats_BitRate : 68
FromStats_Duration : 01:29:27.114000000
FromStats_FrameCount : 756
FromStats_StreamSize : 45913
Меню
00:00:00.000 : en:Chapter 01
00:12:43.360 : en:Chapter 02
00:31:52.560 : en:Chapter 03
00:41:53.680 : en:Chapter 04
00:53:56.480 : en:Chapter 05
01:05:38.480 : en:Chapter 06
01:18:56.160 : en:Chapter 07
01:30:43.360 : en:Chapter 08
01:31:17.880 : en:Chapter 09


_________________
Проголосуй за трекер Открытый торрент трекер - RUS-MEDIA.ORG

Проголосуй Открытый торрент трекер - RUS-MEDIA.ORG



реклама партнёра


Вернуться к началу
 Профиль Отправить личное сообщение  
 
   Похожие торренты   Автор   Торрент   Размер 
В этой теме нет новых непрочитанных сообщений. Безымянный палец / Перст любви / L'annulaire (Дайан Бертран / Diane Bertrand) [2005г., драма, DVDRip-AVC] MVO

Alfredovich

21 | 4

1.86 ГБ

В этой теме нет новых непрочитанных сообщений. Пропойцы / The Rounders [комедия, вестерн, 1965] DVDRip, Avo

salma3

90 | 8

1.46 ГБ

В этой теме нет новых непрочитанных сообщений. Последний из могикан / Uncas, el fin de una raza [приключения, вестерн, 1965] DVDRip, Avo

salma3

60 | 7

1.36 ГБ

В этой теме нет новых непрочитанных сообщений. Золото древних инков / Das Vermächtnis des Inka [Приключения, вестерн, 1965] DVDRip-AVC, Dub

salma3

9 | 1

1.89 ГБ

В этой теме нет новых непрочитанных сообщений. Сыновья Большой Медведицы / Die Sohne der groben Barin [вестерн, 1965] Blu-ray 1080i, Dub

salma3

5 | 3

22.11 ГБ

В этой теме нет новых непрочитанных сообщений. Сыновья Кэти Элдер / The Sons of Katie Elder [вестерн, 1965] WEBRip, Mvo

salma3

25 | 9

1.45 ГБ

В этой теме нет новых непрочитанных сообщений. Вива Мария! / Viva Maria! [мелодрама, комедия, приключения, вестерн, 1965] HDTVRip, Dvo

salma3

13 | 7

1.53 ГБ


Начать новую тему Ответить на тему  [ 1 сообщение ] 




Для Мосгорсуда, Роскомнадзора и рекламодателей:: mosgorsud-torrent[собачка]yandex.ru
cron