Торрент файл
скачать торрент магнет ссылка Добавлен: 20 янв 2017, 13:56
Размер: 1.47 ГБ
Сидеров: 95
Личеров: 25
Статус: (salma3)
Автор

СообщениеДобавлено: 20 янв 2017, 13:56 

Не в сети
Супермодератор
Аватара пользователя
Дата регистрации:
15 фев 2012, 16:44
Возраст: 28
Спасибо: 6640 / 2146
Сообщения: 45613
Год выпуска: 1996
Жанр: боевик, триллер, драма, детектив
Режиссер: Чак Расселл

В ролях: Арнольд Шварценеггер, Джеймс Каан, Ванесса Л. Уильямс, Джеймс Кобурн, Роберт Пасторелли, Джеймс Кромуэлл, Дэнни Нучии, Энди Романо, Ник Чинланд, Майкл Пападжон, Джо Витерелли, Марк Ролстон, Джон Слэттери, Роберт Миранда, Рома Маффиа, Тони Лонго, Джерри Бекер, Джон Снайдер, Мелора Уолтерс, Олек Крупа, Силк Козарт

Описание:
Джон Крюгер «стирает» из прошлого и настоящего все следы людей, находящихся под охраной Программы Защиты Свидетелей. Ему надо защищать женщину — ее играет Ванесса Уильямс, — которая готова разоблачить сделку по продаже преступникам нового супероружия. Крюгер должен спасти и ее и себя, и начинается марафон не на жизнь, а на смерть, где ему предстоит прыгать с самолета вслед за парашютом, сражаться с аллигаторами, преодолевать суперсовременные системы безопасности и противостоять киллерам с новейшим оружием.



Страна: США
Продолжительность: 01:54:31
Перевод: Профессиональный (полное дублирование)

Формат: HDRip-AVC, MKV, H.264, AC3
Видео: 1024x432 (2.40:1), 23.976 fps, AVC (H.264), ~1414 kbps, 0.133 bit/pixel
Аудио: 48.0 kHz, AC3 Dolby Digital, 3/2 (L,C,R,l,r) + LFE ch, ~384.00 kbps avg

General
Unique ID : 38930355963128823355244609520755361114 (0x1D49B6BD87C85053C1E527C7F559455A)
Complete name : C:\Users\Юрик\Downloads\Eraser 1999.BDRip (AVC)_[tfile.ru].mkv
Format : Matroska
Format version : Version 2
File size : 1.47 GiB
Duration : 1h 54mn
Overall bit rate : 1 834 Kbps
Writing application : Lavf55.12.100
Writing library : Lavf55.12.100

Video
ID : 2
Format : AVC
Format/Info : Advanced Video Codec
Format profile :
Format settings, CABAC : Yes
Format settings, ReFrames : 1 frame
Format settings, GOP : M=1, N=12
Codec ID : V_MPEG4/ISO/AVC
Duration : 1h 54mn
Bit rate : 1 414 Kbps
Width : 1 024 pixels
Height : 432 pixels
Display aspect ratio : 2.40:1
Frame rate mode : Constant
Frame rate : 23.976 fps
Color space : YUV
Chroma subsampling : 4:2:0
Bit depth : 8 bits
Scan type : Progressive
Bits/(Pixel*Frame) : 0.133
Stream size : 1.13 GiB (77%)
Default : Yes
Forced : No

Audio
ID : 1
Format : AC-3
Format/Info : Audio Coding 3
Mode extension : CM (complete main)
Format settings, Endianness : Big
Codec ID : A_AC3
Duration : 1h 54mn
Bit rate mode : Constant
Bit rate : 384 Kbps
Channel(s) : 6 channels
Channel positions : Front: L C R, Side: L R, LFE
Sampling rate : 48.0 KHz
Bit depth : 32 bits
Compression mode : Lossy
Stream size : 315 MiB (21%)
Default : Yes
Forced : No




_________________
Проголосуй за трекер Открытый торрент трекер - RUS-MEDIA.ORG

Проголосуй Открытый торрент трекер - RUS-MEDIA.ORG



реклама партнёра


Вернуться к началу
 Профиль Отправить личное сообщение  
 
   Похожие торренты   Автор   Торрент   Размер 
В этой теме нет новых непрочитанных сообщений. Стиратель / Eraser [Боевик, триллер, драма, 1996] BDRemux 1080p, Dub

salma3

0 | 12

24.06 ГБ

В этой теме нет новых непрочитанных сообщений. Стиратель / Eraser [Боевик, триллер, драма, 1996] BDRip-HEVC 1080p, Dub

salma3

28 | 5

5.32 ГБ

В этой теме нет новых непрочитанных сообщений. Фанат / The Fan [боевик, триллер, драма, спорт, 1996] HDRip, Mvo

salma3

17 | 5

1.45 ГБ

В этой теме нет новых непрочитанных сообщений. Под прицелом / Silent Trigger [боевик, триллер, драма, 1996] HDRip, Dvo+Avo

salma3

101 | 5

1.46 ГБ

В этой теме нет новых непрочитанных сообщений. Под прицелом / Silent Trigger [боевик, триллер, драма, 1996] HDRip, Avo

salma3

70 | 3

743.09 МБ

В этой теме нет новых непрочитанных сообщений. Первый удар / First Strike [Боевик, триллер, драма, 1996] HDRip, Mvo [HTB]

salma3

14 | 3

1.37 ГБ

В этой теме нет новых непрочитанных сообщений. Под прицелом / Silent Trigger [Боевик, триллер, драма, 1996] HDRip, Dvo

salma3

49 | 4

1.46 ГБ


Начать новую тему Ответить на тему  [ 1 сообщение ] 




Для Мосгорсуда, Роскомнадзора и рекламодателей:: mosgorsud-torrent[собачка]yandex.ru