Торрент файл
скачать торрент магнет ссылка Добавлен: 19 янв 2017, 13:02
Размер: 4.07 ГБ
Сидеров: 14
Личеров: 3
Статус: (salma3)
Автор

СообщениеДобавлено: 19 янв 2017, 13:02 

Не в сети
Супермодератор
Аватара пользователя
Дата регистрации:
15 фев 2012, 16:44
Возраст: 28
Спасибо: 6644 / 2146
Сообщения: 45958
Год выхода: 2005
Жанр: драма, мелодрама, военный, история, музыка
Режиссер: Кристиан Карион

В ролях: Даниэль Брюль, Дайан Крюгер, Бенно Фюрманн, Гийом Кане, Гари Льюис, Дани Бун, Люка Бельво, Натали Дессей, Роландо Вильясон, Алекс Фернс

О фильме:
В канун Рождества 1914 года четверо людей пережили незабываемое. Шотландский священник, французский лейтенант, немецкий тенор и его возлюбленная оказались в самом сердце спонтанного братства, возникшего между траншеями немцев, англичан и французов.
Ружья были оставлены на дне окопов, а сами солдаты и офицеры вышли навстречу друг другу, чтобы обменяться сигаретами, разделить шоколад и пожелать друг другу: «Счастливого Рождества!»



Страна: Франция Германия Великобритания Бельгия Румыния Норвегия США Япония
Студия: Nord-Ouest Productions, Senator Film Produktion GmbH, The Bureau, Artémis Productions, Media Pro Pictures, TF1 Films Production, Les Productions de la Guéville, Canal+, CinéCinéma, Sat.1, Centre National de la Cinématographie...
Продолжительность: 01:55:59
Перевод: Профессиональный многоголосый, Профессиональный двухголосый, Оригинал
Файл
Кодек: x264
Качество: BDRip 720p
Видео: 1280x544 (2,35:1), 23.976 fps, 3580 kbps
Звук:
Аудио #1: AC3, 448 Kbps, 48.0 KHz, 6 ch (Rus) Профессиональный многоголосый, CP Digital
Аудио #2: AC3, 448 Kbps, 48.0 KHz, 6 ch (Ukr) Профессиональный двухголосый, ТВі
Аудио #3: AC3, 448 Kbps, 48.0 KHz, 6 ch (Fre) Оригинал
Субтитры: Русские, Украинские, Английские


Формат : Matroska
Версия формата : Version 2
Размер файла : 4,07 Гбайт
Продолжительность : 1 ч. 55 м.
Общий поток : 5024 Кбит/сек
Дата кодирования : UTC 2017-01-18 00:55:49
Программа кодирования : mkvmerge v5.4.0 ('Piper') built on Mar 10 2012 13:34:39
Библиотека кодирования : libebml v1.2.3 + libmatroska v1.3.0
Видео
Идентификатор : 1
Формат : AVC
Формат/Информация : Advanced Video Codec
Профиль формата : High@L4.1
Параметр CABAC формата : Да
Параметр ReFrames формата : 9 кадров
Идентификатор кодека : V_MPEG4/ISO/AVC
Продолжительность : 1 ч. 55 м.
Битрейт : 3580 Кбит/сек
Ширина : 1280 пикселей
Высота : 544 пикселя
Соотношение сторон : 2,35:1
Режим частоты кадров : Постоянный
Частота кадров : 23,976 кадра/сек
Цветовое пространство : YUV
Субдискретизация насыщенности : 4:2:0
Битовая глубина : 8 бит
Тип развёртки : Прогрессивная
Бит/(Пиксели*Кадры) : 0.214
Размер потока : 2,90 Гбайт (71%)
Заголовок : Joyeux Noël / Joyeux Noel / Merry Christmas / Счастливого Рождества (2005)
Библиотека кодирования : x264 core 146 r2538 121396c
Настройки программы : cabac=1 / ref=9 / deblock=1:-3:-2 / analyse=0x3:0x113 / me=umh / subme=11 / psy=1 / psy_rd=1.00:0.15 / mixed_ref=1 / me_range=32 / chroma_me=1 / trellis=2 / 8x8dct=1 / cqm=0 / deadzone=21,11 / fast_pskip=0 / chroma_qp_offset=-3 / threads=6 / lookahead_threads=1 / sliced_threads=0 / nr=0 / decimate=1 / interlaced=0 / bluray_compat=0 / constrained_intra=0 / bframes=8 / b_pyramid=2 / b_adapt=2 / b_bias=0 / direct=1 / weightb=1 / open_gop=0 / weightp=2 / keyint=230 / keyint_min=23 / scenecut=40 / intra_refresh=0 / rc_lookahead=40 / rc=crf / mbtree=0 / crf=18.0 / qcomp=0.60 / qpmin=0 / qpmax=69 / qpstep=4 / vbv_maxrate=62500 / vbv_bufsize=78125 / crf_max=0.0 / nal_hrd=none / filler=0 / ip_ratio=1.40 / pb_ratio=1.30 / aq=1:1.00
Язык : French
Default : Да
Forced : Нет
Аудио #1
Идентификатор : 2
Формат : AC-3
Формат/Информация : Audio Coding 3
Расширение режима : CM (complete main)
Параметр Endianness формата : Big
Идентификатор кодека : A_AC3
Продолжительность : 1 ч. 55 м.
Вид битрейта : Постоянный
Битрейт : 448 Кбит/сек
Каналы : 6 каналов
Расположение каналов : Front: L C R, Side: L R, LFE
Частота : 48,0 КГц
Битовая глубина : 16 бит
Метод сжатия : С потерями
Размер потока : 372 Мбайт (9%)
Заголовок : MVO (Russian) CP Digital
Язык : Russian
Default : Да
Forced : Нет
Аудио #2
Идентификатор : 3
Формат : AC-3
Формат/Информация : Audio Coding 3
Расширение режима : CM (complete main)
Параметр Endianness формата : Big
Идентификатор кодека : A_AC3
Продолжительность : 1 ч. 55 м.
Вид битрейта : Постоянный
Битрейт : 448 Кбит/сек
Каналы : 6 каналов
Расположение каналов : Front: L C R, Side: L R, LFE
Частота : 48,0 КГц
Битовая глубина : 16 бит
Метод сжатия : С потерями
Размер потока : 372 Мбайт (9%)
Заголовок : DVO (Ukrainian) ТВі
Язык : Ukrainian
Default : Нет
Forced : Нет
Аудио #3
Идентификатор : 4
Формат : AC-3
Формат/Информация : Audio Coding 3
Расширение режима : CM (complete main)
Параметр Endianness формата : Big
Идентификатор кодека : A_AC3
Продолжительность : 1 ч. 55 м.
Вид битрейта : Постоянный
Битрейт : 448 Кбит/сек
Каналы : 6 каналов
Расположение каналов : Front: L C R, Side: L R, LFE
Частота : 48,0 КГц
Битовая глубина : 16 бит
Метод сжатия : С потерями
Размер потока : 372 Мбайт (9%)
Заголовок : Original (French)
Язык : French
Default : Нет
Forced : Нет
Текст #1
Идентификатор : 5
Формат : UTF-8
Идентификатор кодека : S_TEXT/UTF8
Идентификатор кодека/Информация : UTF-8 Plain Text
Заголовок : Rus
Язык : Russian
Default : Нет
Forced : Нет
Текст #2
Идентификатор : 6
Формат : UTF-8
Идентификатор кодека : S_TEXT/UTF8
Идентификатор кодека/Информация : UTF-8 Plain Text
Заголовок : Ukr
Язык : Ukrainian
Default : Нет
Forced : Нет
Текст #3
Идентификатор : 7
Формат : UTF-8
Идентификатор кодека : S_TEXT/UTF8
Идентификатор кодека/Информация : UTF-8 Plain Text
Заголовок : Eng
Язык : English
Default : Нет
Forced : Нет
Меню
00:00:00.000 : :Chapter 01
00:08:08.654 : :Chapter 02
00:17:04.440 : :Chapter 03
00:27:25.560 : :Chapter 04
00:36:07.707 : :Chapter 05
00:45:13.502 : :Chapter 06
00:55:05.468 : :Chapter 07
01:06:01.958 : :Chapter 08
01:13:47.256 : :Chapter 09
01:23:22.706 : :Chapter 10
01:32:43.099 : :Chapter 11
01:41:14.276 : :Chapter 12
01:48:07.981 : :Chapter 13
01:55:58.326 : :Chapter 14

Релиз от:


_________________
Проголосуй за трекер Открытый торрент трекер - RUS-MEDIA.ORG

Проголосуй Открытый торрент трекер - RUS-MEDIA.ORG



реклама партнёра


Вернуться к началу
 Профиль Отправить личное сообщение  
 
   Похожие торренты   Автор   Торрент   Размер 
В этой теме нет новых непрочитанных сообщений. Счастливого Рождества / Joyeux Noël / Merry Christmas [Драма, мелодрама, военный, музыка, 2005] BDRip, Mvo

salma3

37 | 15

1.46 ГБ

В этой теме нет новых непрочитанных сообщений. Noel Monique Clarity Enhanced (2016) 1080p

salma3

0 | 0

452.59 МБ

В этой теме нет новых непрочитанных сообщений. Мой друг Дед Мороз / Le pere Noel [комедия, 2014] HDRip, Mvo

salma3

70 | 5

1.36 ГБ

В этой теме нет новых непрочитанных сообщений. Дед Мороз - отморозок / Le pere Noel est une ordure [комедия, 1982] BDRemux 1080p, Dvo

salma3

7 | 5

19.7 ГБ

В этой теме нет новых непрочитанных сообщений. Ледяная скульптура Рождества / Ice Sculpture Christmas [драма, мелодрама, комедия, 2015] SATRip, Mvo

salma3

122 | 25

1.37 ГБ

В этой теме нет новых непрочитанных сообщений. Белая графиня / The White Countess [Мелодрама, драма, военный, история, 2005] WEB-DL 720p, Mvo

salma3

121 | 75

4.75 ГБ

В этой теме нет новых непрочитанных сообщений. [ImmoralLive.com / MyXXXPass.com] Bibi Noel (Down To Clown / 16.11.2017) [2017 г., Hardcore,Blonde,Vibrator,Blowjob,Deepthroat,Big Tits,Cowgirl,Cum on Ass,Doggystyle,Oral,Piercings,Reverse Cowgirl,Rimjob,Tattooed, 720p]

salma3

8 | 2

765.2 МБ


Начать новую тему Ответить на тему  [ 1 сообщение ] 




Для Мосгорсуда, Роскомнадзора и рекламодателей:: mosgorsud-torrent[собачка]yandex.ru