Торрент файл
скачать торрент магнет ссылка Добавлен: 16 янв 2017, 12:34
Размер: 2.28 ГБ
Сидеров: 83
Личеров: 20
Статус: (salma3)
Автор

СообщениеДобавлено: 16 янв 2017, 12:34 

В сети
Супермодератор
Аватара пользователя
Дата регистрации:
15 фев 2012, 16:44
Возраст: 28
Спасибо: 6672 / 2146
Сообщения: 46165
Страна: Франция, Италия
Жанр: триллер, драма, криминал
Год выпуска: 1969
Продолжительность: 01:53:00
Перевод: Профессиональный (двухголосый, закадровый), 2 х Авторский
Субтитры: русские, английские.
Режиссер: Рене Клеман / René Clément

В ролях: Чарльз Бронсон (Col. Harry Dobbs), Марлен Жобер (Mélancolie Mau), Габриэле Тинти (Tony Mau), Жан Гавен (Inspector Toussaint), Жан Пиа (M. Armand), Джилл Айрленд (Nicole), Коринн Маршан (Tania), Анни Корди (Juliette), Эллен Баль (Madeleine Legauff), Стив Экхардт (U.S. officer), Jean-Daniel Ehrmann, Марика Грин (Hostess at Tania's)

Описание: Молодая женщина убивает насильника и сбрасывает его труп в море. Вскоре появляется таинственный американец, который начинает с ней игру в «кошки-мышки», добиваясь признания в совершенном убийстве.



Качество: DVDRip
Контейнер: MKV
Видео: AVC, 716x544 @ 1018x544 (1.85:1), 2082 kbps, 25 fps, 0,214 bpp
Аудио №1: русский / AC3 / 2.0 / 48 kHz / 192 kbps / DVO
Аудио №2: русский / AC3 / 2.0 / 48 kHz / 192 kbps / AVO ( Михалёв )
Аудио №3: русский / AC3 / 2.0 / 48 kHz / 192 kbps / AVO ( Гаврилов )
Аудио №4: французский / AC3 / 2.0 / 48 kHz / 224 kbps
Навигация по главам: есть

Формат : Matroska
Версия формата : Version 2
Размер файла : 2,28 Гбайт
Продолжительность : 1 ч. 53 м.
Общий поток : 2885 Кбит/сек
Название фильма : = Пассажир дождя / Le passager de la pluie DVDRip-AVC by SC Kosmos =
Дата кодирования : UTC 2017-01-08 08:17:40
Программа кодирования : mkvmerge v5.8.0 ('No Sleep / Pillow') built on Sep 2 2012 15:37:04
Библиотека кодирования : libebml v1.2.3 + libmatroska v1.3.0
Attachment : Yes
Видео
Идентификатор : 1
Формат : AVC
Формат/Информация : Advanced Video Codec
Профиль формата : High@L4.1
Параметр CABAC формата : Да
Параметр ReFrames формата : 12 кадров
Идентификатор кодека : V_MPEG4/ISO/AVC
Продолжительность : 1 ч. 53 м.
Битрейт : 2082 Кбит/сек
Ширина : 716 пикселей
Высота : 544 пикселя
Соотношение сторон : 1,85:1
Соотношение сторон в оригинале : 1,85:1
Режим частоты кадров : Постоянный
Частота кадров : 25,000 кадров/сек
Цветовое пространство : YUV
Субдискретизация насыщенности : 4:2:0
Битовая глубина : 8 бит
Тип развёртки : Прогрессивная
Бит/(Пиксели*Кадры) : 0.214
Размер потока : 1,60 Гбайт (70%)
Заголовок : Пассажир дождя / Le passager de la pluie DVDRip-AVC by SC Kosmos ( Французская версия )
Библиотека кодирования : x264 core 148 r2705 3f5ed56
Настройки программы : cabac=1 / ref=12 / deblock=1:-1:-1 / analyse=0x3:0x113 / me=umh / subme=11 / psy=1 / psy_rd=1.05:0.00 / mixed_ref=1 / me_range=32 / chroma_me=1 / trellis=2 / 8x8dct=1 / cqm=0 / deadzone=21,11 / fast_pskip=0 / chroma_qp_offset=-2 / threads=12 / lookahead_threads=3 / sliced_threads=0 / nr=0 / decimate=0 / interlaced=0 / bluray_compat=0 / constrained_intra=0 / bframes=10 / b_pyramid=2 / b_adapt=2 / b_bias=0 / direct=3 / weightb=1 / open_gop=0 / weightp=2 / keyint=250 / keyint_min=25 / scenecut=40 / intra_refresh=0 / rc_lookahead=40 / rc=2pass / mbtree=0 / bitrate=2082 / ratetol=1.0 / qcomp=0.60 / qpmin=0 / qpmax=69 / qpstep=4 / cplxblur=20.0 / qblur=0.5 / vbv_maxrate=62500 / vbv_bufsize=78125 / nal_hrd=none / filler=0 / ip_ratio=1.40 / pb_ratio=1.30 / aq=1:1.00
Язык : French
Default : Да
Forced : Нет
Аудио #1
Идентификатор : 2
Формат : AC-3
Формат/Информация : Audio Coding 3
Расширение режима : CM (complete main)
Параметр Endianness формата : Big
Идентификатор кодека : A_AC3
Продолжительность : 1 ч. 53 м.
Вид битрейта : Постоянный
Битрейт : 192 Кбит/сек
Каналы : 2 канала
Расположение каналов : Front: L R
Частота : 48,0 КГц
Битовая глубина : 16 бит
Метод сжатия : С потерями
Размер потока : 155 Мбайт (7%)
Заголовок : DVO
Язык : Russian
Default : Да
Forced : Нет
Аудио #2
Идентификатор : 3
Формат : AC-3
Формат/Информация : Audio Coding 3
Профиль формата : Dolby Digital
Расширение режима : CM (complete main)
Параметр Endianness формата : Big
Идентификатор кодека : A_AC3
Продолжительность : 1 ч. 53 м.
Вид битрейта : Постоянный
Битрейт : 192 Кбит/сек
Каналы : 2 канала
Расположение каналов : Front: L R
Частота : 48,0 КГц
Битовая глубина : 16 бит
Метод сжатия : С потерями
Размер потока : 155 Мбайт (7%)
Заголовок : AVO ( Михалёв )
Язык : Russian
Default : Нет
Forced : Нет
Аудио #3
Идентификатор : 4
Формат : AC-3
Формат/Информация : Audio Coding 3
Расширение режима : CM (complete main)
Параметр Endianness формата : Big
Идентификатор кодека : A_AC3
Продолжительность : 1 ч. 53 м.
Вид битрейта : Постоянный
Битрейт : 192 Кбит/сек
Каналы : 2 канала
Расположение каналов : Front: L R
Частота : 48,0 КГц
Битовая глубина : 16 бит
Метод сжатия : С потерями
Размер потока : 155 Мбайт (7%)
Заголовок : AVO ( Гаврилов )
Язык : Russian
Default : Нет
Forced : Нет
Аудио #4
Идентификатор : 5
Формат : AC-3
Формат/Информация : Audio Coding 3
Расширение режима : CM (complete main)
Параметр Endianness формата : Big
Идентификатор кодека : A_AC3
Продолжительность : 1 ч. 53 м.
Вид битрейта : Постоянный
Битрейт : 224 Кбит/сек
Каналы : 2 канала
Расположение каналов : Front: L R
Частота : 48,0 КГц
Битовая глубина : 16 бит
Метод сжатия : С потерями
Размер потока : 181 Мбайт (8%)
Язык : French
Default : Нет
Forced : Нет
Текст #1
Идентификатор : 6
Формат : UTF-8
Идентификатор кодека : S_TEXT/UTF8
Идентификатор кодека/Информация : UTF-8 Plain Text
Язык : Russian
Default : Нет
Forced : Нет
Текст #2
Идентификатор : 7
Формат : UTF-8
Идентификатор кодека : S_TEXT/UTF8
Идентификатор кодека/Информация : UTF-8 Plain Text
Язык : English
Default : Нет
Forced : Нет
Меню
00:00:00.000 : en:Chapter 01
00:09:48.960 : en:Chapter 02
00:22:23.040 : en:Chapter 03
00:29:10.080 : en:Chapter 04
00:38:22.080 : en:Chapter 05
00:47:25.440 : en:Chapter 06
00:58:25.920 : en:Chapter 07
01:05:26.880 : en:Chapter 08
01:17:19.200 : en:Chapter 09
01:24:41.280 : en:Chapter 10
01:30:46.080 : en:Chapter 11
01:49:19.680 : en:Chapter 12




_________________
Проголосуй за трекер Открытый торрент трекер - RUS-MEDIA.ORG

Проголосуй Открытый торрент трекер - RUS-MEDIA.ORG



реклама партнёра


Вернуться к началу
 Профиль Отправить личное сообщение  
 
   Похожие торренты   Автор   Торрент   Размер 
В этой теме нет новых непрочитанных сообщений. Пассажир дождя / Le passager de la pluie [Триллер, драма, криминал, 1969] BDRip 1080p, Dvo

salma3

53 | 34

12.98 ГБ

В этой теме нет новых непрочитанных сообщений. Пассажир дождя / Le Passager de la pluie [Детектив, триллер, драма, 1969] BDRip-AVC, Dvo

salma3

11 | 5

2.19 ГБ

В этой теме нет новых непрочитанных сообщений. Пассажир 57 / Passenger 57 [боевик, триллер, криминал, 1992] BDRip 720p, Dub

salma3

226 | 67

5.32 ГБ

В этой теме нет новых непрочитанных сообщений. Пассажир 57 / Passenger 57 [Боевик, триллер, криминал, 1992] BDRemux 1080p, Dub

salma3

4 | 1

17.37 ГБ

В этой теме нет новых непрочитанных сообщений. Пассажир 57 / Passenger 57 [боевик, триллер, криминал, 1992] BDRip-HEVC 1080p, Dub

salma3

5 | 6

3.7 ГБ

В этой теме нет новых непрочитанных сообщений. Итальянская работа / The Italian Job [Боевик, триллер, комедия, криминал, 1969] BDRip 720p Mvo+Sub

salma3

47 | 0

5.28 ГБ

В этой теме нет новых непрочитанных сообщений. Бюро убийств / The Assassination Bureau [боевик, триллер, комедия, криминал, приключения, 1969] DVD5, Mvo

salma3

0 | 3

4.36 ГБ


Начать новую тему Ответить на тему  [ 1 сообщение ] 




Для Мосгорсуда, Роскомнадзора и рекламодателей:: mosgorsud-torrent[собачка]yandex.ru