Торрент файл
скачать торрент магнет ссылка Добавлен: 15 янв 2017, 22:01
Размер: 2.1 ГБ
Сидеров: 164
Личеров: 33
Статус: (salma3)
Автор

СообщениеДобавлено: 15 янв 2017, 22:01 

Не в сети
Супермодератор
Аватара пользователя
Дата регистрации:
15 фев 2012, 16:44
Возраст: 28
Спасибо: 7204 / 2147
Сообщения: 65100
Год выхода: 1988
Страна: США, ЮАР
Студия: Golan-Globus Productions
Продолжительность: 01:27:20
Жанр: фантастика, комедия, приключения
Режиссер: Альберт Пьюн

В ролях: Кэти Айрленд, Уильям Р. Моусес, Ричард Хайнс, Дон Майкл Пол, Том Мэтьюз, Джанет Ду Плесси, Саймон Поланд, Линда Керридж, Кристен Траксесс, Лохнер Де Кок, ...

Перевод: Любительский (одноголосый, закадровый) Васильев

О фильме: Ванда — скромная простая девушка, ведущая размеренный, даже скучный образ жизни. Ее отец — археолог исчез во время экспедиции, и дочь отправляется на его поиски в Африку. Она оказывается в подземном мире, где никто не верит в существование жизни на поверхности. За исключением секретной полиции, которая считает, что Ванда и ее отец-шпионы. Мужчина считает, что много лет назад на Землю прилетел космический корабль и оказался в глубине её недр, и что под землей может существовать другая цивилизация…



Кодек: x264
Качество: DVDRip-AVC
Видео: 716x540, 3000 kbps, 23,976 fps
Аудио #1: AC-3, 2 ch, 256 kbps (Rus) - VO Васильев
Аудио #2: AC-3, 2 ch, 192 kbps (Eng)
Субтитры: Русские, Английские

За исходник спасибо - NeonBoyBoy
x264 [info]: frame I:664 Avg QP:12.14 size: 71449
x264 [info]: frame P:24704 Avg QP:14.45 size: 35419
x264 [info]: frame B:100281 Avg QP:16.64 size: 10392
x264 [info]: consecutive B-frames: 1.0% 1.4% 6.4% 12.6% 8.7% 65.6% 2.5% 0.8% 0.3% 0.2% 0.1% 0.1% 0.3%

Общее
Уникальный идентификатор : 226565099174636380964135298898043065400 (0xAA72D9D39F4D2FBD9BA33E64BA6BD438)
Полное имя : Инопланетянка из Лос-Анджелеса (Alien from L.A.) 1988 DVDRip.mkv
Формат : Matroska
Версия формата : Version 2
Размер файла : 2,10 Гбайт
Продолжительность : 1 ч. 27 м.
Общий поток : 3449 Кбит/сек
Дата кодирования : UTC 2017-01-15 10:38:07
Программа кодирования : mkvmerge v4.0.0 ('The Stars were mine') сборка от Jun 6 2010 16:18:42
Библиотека кодирования : libebml v1.0.0 + libmatroska v1.0.0

Видео
Идентификатор : 1
Формат : AVC
Формат/Информация : Advanced Video Codec
Профиль формата : High@L4.1
Параметр CABAC формата : Да
Параметр ReFrames формата : 12 кадров
Идентификатор кодека : V_MPEG4/ISO/AVC
Продолжительность : 1 ч. 27 м.
Битрейт : 3000 Кбит/сек
Ширина : 716 пикселей
Высота : 540 пикселей
Соотношение сторон : 4:3
Режим частоты кадров : Постоянный
Частота кадров : 23,976 (24000/1001) кадра/сек
Цветовое пространство : YUV
Субдискретизация насыщенности : 4:2:0
Битовая глубина : 8 бит
Тип развёртки : Прогрессивная
Бит/(Пиксели*Кадры) : 0.324
Размер потока : 1,79 Гбайт (85%)
Библиотека кодирования : x264 core 146 r2538 121396c
Настройки программы : cabac=1 / ref=12 / deblock=1:-3:-3 / analyse=0x3:0x133 / me=umh / subme=11 / psy=1 / psy_rd=1.00:0.00 / mixed_ref=1 / me_range=32 / chroma_me=1 / trellis=2 / 8x8dct=1 / cqm=0 / deadzone=21,11 / fast_pskip=0 / chroma_qp_offset=-2 / threads=12 / lookahead_threads=2 / sliced_threads=0 / nr=0 / decimate=0 / interlaced=0 / bluray_compat=0 / constrained_intra=0 / bframes=12 / b_pyramid=2 / b_adapt=2 / b_bias=0 / direct=3 / weightb=1 / open_gop=0 / weightp=2 / keyint=240 / keyint_min=23 / scenecut=40 / intra_refresh=0 / rc=2pass / mbtree=0 / bitrate=3000 / ratetol=1.0 / qcomp=0.60 / qpmin=0 / qpmax=69 / qpstep=4 / cplxblur=20.0 / qblur=0.5 / ip_ratio=1.40 / pb_ratio=1.30 / aq=1:0.80
Язык : English
Default : Нет
Forced : Нет

Аудио #1
Идентификатор : 2
Формат : AC-3
Формат/Информация : Audio Coding 3
Расширение режима : CM (complete main)
Параметр Endianness формата : Big
Идентификатор кодека : A_AC3
Продолжительность : 1 ч. 27 м.
Вид битрейта : Постоянный
Битрейт : 256 Кбит/сек
Каналы : 2 канала
Расположение каналов : Front: L R
Частота : 48,0 КГц
Частота кадров : 31,250 кадров/сек (1536 spf)
Метод сжатия : С потерями
Размер потока : 160 Мбайт (7%)
Заголовок : VO Васильев
Язык : Russian
Default : Нет
Forced : Нет

Аудио #2
Идентификатор : 3
Формат : AC-3
Формат/Информация : Audio Coding 3
Профиль формата : Dolby Digital
Расширение режима : CM (complete main)
Параметр Endianness формата : Big
Идентификатор кодека : A_AC3
Продолжительность : 1 ч. 27 м.
Вид битрейта : Постоянный
Битрейт : 192 Кбит/сек
Каналы : 2 канала
Расположение каналов : Front: L R
Частота : 48,0 КГц
Частота кадров : 31,250 кадров/сек (1536 spf)
Метод сжатия : С потерями
Размер потока : 120 Мбайт (6%)
Язык : English
Default : Нет
Forced : Нет

Текст #1
Идентификатор : 4
Формат : UTF-8
Идентификатор кодека : S_TEXT/UTF8
Идентификатор кодека/Информация : UTF-8 Plain Text
Язык : Russian
Default : Нет
Forced : Нет

Текст #2
Идентификатор : 5
Формат : UTF-8
Идентификатор кодека : S_TEXT/UTF8
Идентификатор кодека/Информация : UTF-8 Plain Text
Язык : English
Default : Нет
Forced : Нет



_________________
Проголосуй за трекер Открытый торрент трекер - RUS-MEDIA.ORG

Проголосуй Открытый торрент трекер - RUS-MEDIA.ORG


Вернуться к началу
 Профиль Отправить личное сообщение  
 
   Похожие торренты   Автор   Торрент   Размер 
В этой теме нет новых непрочитанных сообщений. Инопланетянка из Лос-Анджелеса / Alien from L.A. [фантастика, комедия, приключения, 1988] DVDRip, Avo

salma3

175 | 30

1.45 ГБ

В этой теме нет новых непрочитанных сообщений. Моя мачеха - инопланетянка / My Stepmother Is an Alien [Комедия, фантастика, 1988] HDTVRip-AVC, Mvo

salma3

39 | 5

745.59 МБ

В этой теме нет новых непрочитанных сообщений. Моя мачеха - инопланетянка / My Stepmother Is an Alien [Комедия, фантастика, 1988] WEB-DLRip-AVC, Mvo

salma3

36 | 1

746 МБ

В этой теме нет новых непрочитанных сообщений. Моя мачеха - инопланетянка / My Stepmother Is an Alien [фантастика, комедия, 1988] WEBRip 1080p, Mvoича

salma3

81 | 27

10.87 ГБ

В этой теме нет новых непрочитанных сообщений. Чужая нация / Alien Nation [Фантастика, боевик, криминал, 1988] BDRip, Mvo+Avo

salma3

92 | 4

1.45 ГБ

В этой теме нет новых непрочитанных сообщений. Чужая нация / Alien Nation [фантастика, боевик, криминал, 1988] BDRemux 1080p, Mvo

salma3

2 | 1

21.73 ГБ

В этой теме нет новых непрочитанных сообщений. Кокон 2: Возвращение / Cocoon: The Return [Фантастика, комедия, приключения, 1988] WEB-DLRip-AVC, Mvo

salma3

107 | 27

747.02 МБ


Начать новую тему Ответить на тему  [ 1 сообщение ] 




Для Мосгорсуда, Роскомнадзора и рекламодателей:: mosgorsud-torrent[собачка]yandex.ru
cron