Торрент файл
скачать торрент магнет ссылка Добавлен: 14 янв 2017, 12:26
Размер: 2.21 ГБ
Сидеров: 93
Личеров: 18
Статус: (salma3)
Автор

СообщениеДобавлено: 14 янв 2017, 12:26 

Не в сети
Супермодератор
Аватара пользователя
Дата регистрации:
15 фев 2012, 16:44
Возраст: 28
Спасибо: 7059 / 2147
Сообщения: 58942
Год выхода: 1977
Страна: Италия
Продолжительность: 01:49:40
Жанр: комедия
Режиссер: Серджио Корбуччи

В ролях: Адриано Челентано, Ренато Поццетто, Барбара Бах, Антонио Касагранде, Джулиана Каландра, Феличе Андреази, Франка Марци, Имма Пиро, Капюсин, Жорж Вильсон, ...
Перевод: Авторский (одноголосый, закадровый) Живаго Николай Александрович
О фильме: Клик — бульварный фотограф, за которым гоняются то бандиты, попавшие в объектив на месте преступления, то разъяренные женщины, также оказавшееся в поле зрения журналиста. Однажды во время столкновения с полицией Клик познакомился с начинающим писателем Гуанзироле Пальмамброджо…



Кодек: x264
Качество: DVDRip-AVC
Видео: 752x416, 2500 kbps, 25 fps
Аудио #1: AC-3, 2 ch, 192 kbps (Rus) - AVO Живаго Николай Александрович
Аудио #2: AC-3, 2 ch, 192 kbps (Ita)
Субтитры: нет

x264 [info]: frame I:962 Avg QP:18.04 size: 50691
x264 [info]: frame P:32554 Avg QP:20.57 size: 22959
x264 [info]: frame B:130995 Avg QP:22.54 size: 9621
x264 [info]: consecutive B-frames: 0.9% 1.4% 4.6% 16.9% 24.4% 37.0% 10.0% 2.0% 1.4% 0.4% 0.2% 0.9% 0.0%
Общее
Уникальный идентификатор : 240418347800740004217503330418723917320 (0xB4DEE3B7A532F87AB21124CCDEF40E08)
Полное имя : Невезучий папарацци (Ecco noi per esempio...) 1977 DVDRip.mkv
Формат : Matroska
Версия формата : Version 2
Размер файла : 2,21 Гбайт
Продолжительность : 1 ч. 49 м.
Общий поток : 2886 Кбит/сек
Дата кодирования : UTC 2017-01-13 08:03:46
Программа кодирования : mkvmerge v4.0.0 ('The Stars were mine') сборка от Jun 6 2010 16:18:42
Библиотека кодирования : libebml v1.0.0 + libmatroska v1.0.0
Видео
Идентификатор : 1
Формат : AVC
Формат/Информация : Advanced Video Codec
Профиль формата : High@L4.1
Параметр CABAC формата : Да
Параметр ReFrames формата : 12 кадров
Идентификатор кодека : V_MPEG4/ISO/AVC
Продолжительность : 1 ч. 49 м.
Битрейт : 2500 Кбит/сек
Ширина : 752 пикселя
Высота : 416 пикселей
Соотношение сторон : 16:9
Режим частоты кадров : Постоянный
Частота кадров : 25,000 кадров/сек
Цветовое пространство : YUV
Субдискретизация насыщенности : 4:2:0
Битовая глубина : 8 бит
Тип развёртки : Прогрессивная
Бит/(Пиксели*Кадры) : 0.320
Размер потока : 1,87 Гбайт (85%)
Библиотека кодирования : x264 core 146 r2538 121396c
Настройки программы : cabac=1 / ref=12 / deblock=1:-3:-3 / analyse=0x3:0x133 / me=umh / subme=11 / psy=1 / psy_rd=1.00:0.00 / mixed_ref=1 / me_range=32 / chroma_me=1 / trellis=2 / 8x8dct=1 / cqm=0 / deadzone=21,11 / fast_pskip=0 / chroma_qp_offset=-2 / threads=12 / lookahead_threads=2 / sliced_threads=0 / nr=0 / decimate=0 / interlaced=0 / bluray_compat=0 / constrained_intra=0 / bframes=12 / b_pyramid=2 / b_adapt=2 / b_bias=0 / direct=3 / weightb=1 / open_gop=0 / weightp=2 / keyint=250 / keyint_min=25 / scenecut=40 / intra_refresh=0 / rc=2pass / mbtree=0 / bitrate=2500 / ratetol=1.0 / qcomp=0.60 / qpmin=0 / qpmax=69 / qpstep=4 / cplxblur=20.0 / qblur=0.5 / ip_ratio=1.40 / pb_ratio=1.30 / aq=1:0.80
Язык : Italian
Default : Нет
Forced : Нет
Аудио #1
Идентификатор : 2
Формат : AC-3
Формат/Информация : Audio Coding 3
Расширение режима : CM (complete main)
Параметр Endianness формата : Big
Идентификатор кодека : A_AC3
Продолжительность : 1 ч. 49 м.
Вид битрейта : Постоянный
Битрейт : 192 Кбит/сек
Каналы : 2 канала
Расположение каналов : Front: L R
Частота : 48,0 КГц
Частота кадров : 31,250 кадров/сек (1536 spf)
Метод сжатия : С потерями
Размер потока : 151 Мбайт (7%)
Заголовок : AVO Живаго Николай Александрович
Язык : Russian
Default : Нет
Forced : Нет
Аудио #2
Идентификатор : 3
Формат : AC-3
Формат/Информация : Audio Coding 3
Расширение режима : CM (complete main)
Параметр Endianness формата : Big
Идентификатор кодека : A_AC3
Продолжительность : 1 ч. 49 м.
Вид битрейта : Постоянный
Битрейт : 192 Кбит/сек
Каналы : 2 канала
Расположение каналов : Front: L R
Частота : 48,0 КГц
Частота кадров : 31,250 кадров/сек (1536 spf)
Метод сжатия : С потерями
Размер потока : 151 Мбайт (7%)
Язык : Italian
Default : Нет
Forced : Нет



_________________
Проголосуй за трекер Открытый торрент трекер - RUS-MEDIA.ORG

Проголосуй Открытый торрент трекер - RUS-MEDIA.ORG


Вернуться к началу
 Профиль Отправить личное сообщение  
 
   Похожие торренты   Автор   Торрент   Размер 
В этой теме нет новых непрочитанных сообщений. Невезучий / The Wrong Guy [Комедия, триллер, мелодрама, 1997] BDRip 1080p, Dvo

salma3

0 | 0

8.3 ГБ

В этой теме нет новых непрочитанных сообщений. Мимино [комедия, 1977] DVDRip-AVC

salma3

49 | 5

1.46 ГБ

В этой теме нет новых непрочитанных сообщений. Мимино [комедия, 1977] DVDRip-AVC

salma3

23 | 8

1.75 ГБ

В этой теме нет новых непрочитанных сообщений. Пляжный домик / Casotto [комедия, 1977] DVDRip, Avo

salma3

921 | 131

1.45 ГБ

В этой теме нет новых непрочитанных сообщений. Прекрасная страна / Il... Belpaese [драма, комедия, 1977] DVDRip, Mvo

salma3

70 | 22

1.37 ГБ

В этой теме нет новых непрочитанных сообщений. Забавные приключения Дика и Джейн / Fun with Dick and Jane [Комедия, 1977] DVDRip-AVC, Dub

salma3

0 | 0

1.8 ГБ

В этой теме нет новых непрочитанных сообщений. Мимино [комедия, 1977] WEB-DLRip

salma3

31 | 4

1.37 ГБ


Начать новую тему Ответить на тему  [ 1 сообщение ] 




Для Мосгорсуда, Роскомнадзора и рекламодателей:: mosgorsud-torrent[собачка]yandex.ru
cron