Торрент файл
скачать торрент магнет ссылка Добавлен: 11 янв 2017, 22:12
Размер: 742.39 МБ
Сидеров: 93
Личеров: 31
Статус: (salma3)
Автор

СообщениеДобавлено: 11 янв 2017, 22:12 

В сети
Супермодератор
Аватара пользователя
Дата регистрации:
15 фев 2012, 16:44
Возраст: 27
Спасибо: 5363 / 2095
Сообщения: 19120
Год выхода: 2011
Жанр: Ужасы, триллер
Режиссер: Майк Николс

В ролях: Кристина Клебе, Дэн Шакед, Марианн Хэйгэн, Зои Слоун, Шира Вайц, Дарби Уорли, Майк Николс, Стив Кэри, Алана Керри

О фильме: Съемочная группа, снимающая фильмы для взрослых, приезжает в уединенный коттедж в лесу, чтобы снять очередной фильм. По дороге, они встречают двух странных грязных детей, которые кажутся потерянными и запуганными. В разгар съемок дело начинает приобретать неожиданный оборот...



Страна: США
Продолжительность: 01:26:28
Перевод: Любительский (двухголосый, закадровый) (Колобок)
Субтитры: Нет

Семпл

Файл
Кодек: XviD
Качество: HDRip
Видео: 720x304 (2.37:1), 23.976 fps, XviD build 73 ~1062 kbps avg, 0.20 bit/pixel
Звук: 48 kHz, MPEG Layer 3, 2 ch, ~128.00 kbps avg

Общее
Полное имя : Bread.Crumbs.2011.HDRip.ot.Portablius.avi
Формат : AVI
Формат/Информация : Audio Video Interleave
Размер файла : 742 Мбайт
Продолжительность : 1 ч. 26 м.
Общий поток : 1200 Кбит/сек
Программа кодирования : VirtualDubMod 1.5.10.3 | http://www.virtualdub-fr.org || (build 2550/release)
Библиотека кодирования : VirtualDubMod build 2550/release

Видео
Идентификатор : 0
Формат : MPEG-4 Visual
Профиль формата : Advanced Simple@L5
Параметр BVOP формата : 1
Параметр QPel формата : Нет
Параметр GMC формата : Без точки перехода
Параметр матрицы формата : Выборочная
Идентификатор кодека : XVID
Идентификатор кодека/Подсказка : XviD
Продолжительность : 1 ч. 26 м.
Битрейт : 1063 Кбит/сек
Ширина : 720 пикселей
Высота : 304 пикселя
Соотношение сторон : 2,35:1
Частота кадров : 23,976 (24000/1001) кадра/сек
Частота кадров в оригинале : 23,976 (23976/1000) кадра/сек
Цветовое пространство : YUV
Субдискретизация насыщенности : 4:2:0
Битовая глубина : 8 бит
Тип развёртки : Прогрессивная
Метод сжатия : С потерями
Бит/(Пиксели*Кадры) : 0.203
Размер потока : 657 Мбайт (89%)
Библиотека кодирования : XviD 73

Аудио
Идентификатор : 1
Формат : MPEG Audio
Версия формата : Version 1
Профиль формата : Layer 3
Идентификатор кодека : 55
Идентификатор кодека/Подсказка : MP3
Продолжительность : 1 ч. 26 м.
Вид битрейта : Постоянный
Битрейт : 128 Кбит/сек
Каналы : 2 канала
Частота : 48,0 КГц
Метод сжатия : С потерями
Размер потока : 79,2 Мбайт (11%)
Выравнивание : Соединение по промежуткам
Продолжительность промежутка : 42 мс. (1,00 видеокадр)
Время предзагрузки промежутка : 504 мс.
Библиотека кодирования : LAME3.99r
Настройки программы : -m s -V 4 -q 2 -lowpass 17 -b 128









_________________
Проголосуй за трекер Открытый торрент трекер - RUS-MEDIA.ORG

Не забудьте оставить комментарий!



реклама партнёра


Вернуться к началу
 Профиль Отправить личное сообщение  
 
   Похожие торренты   Автор   Торрент   Размер 
В этой теме нет новых непрочитанных сообщений. Хлебные крошки / BreadCrumbs [Ужасы, триллер, 2011] BDRip 720p, Dvo

salma3

149 | 78

3.57 ГБ

В этой теме нет новых непрочитанных сообщений. Русские крошки [2016 г., Amateur, Homemade, Lesbian., CamRip]

Dievas

9 | 0

154.08 МБ

В этой теме нет новых непрочитанных сообщений. Недетские игры / Come Out and Play [триллер, ужасы, 2011] HDRip, Mvo

salma3

117 | 3

1.37 ГБ

В этой теме нет новых непрочитанных сообщений. Близнецы-убийцы / Seconds Apart [ужасы, триллер, 2011] HDRip, Mvo [Лицензия]

salma3

16 | 3

1.45 ГБ

В этой теме нет новых непрочитанных сообщений. Военные игры / War Games: At the End of the Day [триллер, ужасы, боевик, 2011] HDRip, Mvo [Лицензия]

salma3

29 | 12

1.46 ГБ

В этой теме нет новых непрочитанных сообщений. Зомбэкс / Zombex [ужасы, триллер, 2013] HDRip, Avo

salma3

23 | 6

1.43 ГБ

В этой теме нет новых непрочитанных сообщений. Кинопроба / Odishon [ужасы, триллер, 1999] HDRip, Dvo

salma3

23 | 3

1.46 ГБ


Начать новую тему Ответить на тему  [ 1 сообщение ] 




Для Мосгорсуда, Роскомнадзора и рекламодателей:: mosgorsud-torrent[собачка]yandex.ru