Торрент файл
скачать торрент магнет ссылка Добавлен: 01 янв 2017, 22:46
Размер: 1.36 ГБ
Сидеров: 37
Личеров: 11
Статус: (salma3)
Автор

СообщениеДобавлено: 01 янв 2017, 22:46 

Не в сети
Супермодератор
Аватара пользователя
Дата регистрации:
15 фев 2012, 16:44
Возраст: 28
Спасибо: 6644 / 2146
Сообщения: 45843
Год выхода: 2002
Жанр: семейный, комедия
Режиссер: Джон Шеппирд

В ролях: Дилан Спроус, Коул Спроус, Конни Селлекка, Корбин Бернсен, Эрик Джейкобс, Сонни Карл Дэвис, Дэвид Миллберн, Шона Томпсон, Джоан Муллани

О фильме:
Джастин — замечательный мальчик. Он очень любит маму и папу. Но однажды, в канун Рождества, Джастин становится свидетелем размолвки родителей, а потом видит, как его мама целуется с… Санта-Клаусом. С этой минуты, все дедушки в красных тулупах с большими белыми бородами, живые и искусственные, объявляются «вне закона». Джастин очень смышлёный мальчик и хорошо знает, что Санта приходит только к хорошим детям. А раз так, то нужно срочно стать самым плохим, чтобы и духу его здесь не было! Не полагаясь, однако до конца, на эту теорию, Джастин не забывает о разнообразных технических средствах, которые не позволят потенциальному разрушителю хрупкого семейного счастья проникнуть в его дом, ведь Рождество уже совсем скоро…



Производство: США, Германия / Regent Entertainment, ACH, Medien Capital Treuhand
Продолжительность: 01:24:10
Перевод: любительский (одноголосый закадровый) [Вячеслав Прошин]

Файл
Качество: DVDRip-AVC
Формат: MKV
Видео: MPEG-4 AVC, 720x560@1036x560 (1.85:1), 25.000 fps, 1901 kbps, 0.189 bit/pixel
Аудио #1: русский, AC3 2.0, 48 kHz, 192 kbps
Аудио #2: английский, AC3 2.0, 48 kHz, 224 kbps

Формат : Matroska
Версия формата : Version 2
Размер файла : 1,36 Гбайт
Продолжительность : 1 ч. 24 м.
Общий поток : 2315 Кбит/сек
Дата кодирования : UTC 2012-05-09 08:37:09
Программа кодирования : mkvmerge v4.3.0 ('Escape from the Island') сборка от Sep 5 2010 10:30:51
Библиотека кодирования : libebml v1.0.0 + libmatroska v1.0.0

Видео
Идентификатор : 1
Формат : AVC
Формат/Информация : Advanced Video Codec
Профиль формата : High@L4.1
Параметр CABAC формата : Да
Параметр ReFrames формата : 16 кадров
Режим смешивания : Header stripping
Идентификатор кодека : V_MPEG4/ISO/AVC
Продолжительность : 1 ч. 24 м.
Битрейт : 1901 Кбит/сек
Ширина : 720 пикселей
Высота : 560 пикселей
Соотношение сторон : 1,85:1
Режим частоты кадров : Постоянный
Частота кадров : 25,000 кадров/сек
Цветовое пространство : YUV
Субдискретизация насыщенности : 4:2:0
Битовая глубина : 8 бит
Тип развёртки : Прогрессивная
Бит/(Пиксели*Кадры) : 0.189
Размер потока : 1,09 Гбайт (80%)
Библиотека кодирования : x264 core 120 r2164 da19765
Настройки программы : cabac=1 / ref=16 / deblock=1:-1:-1 / analyse=0x3:0x133 / me=umh / subme=10 / psy=1 / psy_rd=1.00:0.15 / mixed_ref=1 / me_range=24 / chroma_me=1 / trellis=2 / 8x8dct=1 / cqm=0 / deadzone=21,11 / fast_pskip=1 / chroma_qp_offset=-3 / threads=6 / sliced_threads=0 / nr=0 / decimate=1 / interlaced=0 / bluray_compat=0 / constrained_intra=0 / bframes=8 / b_pyramid=2 / b_adapt=2 / b_bias=0 / direct=3 / weightb=1 / open_gop=0 / weightp=2 / keyint=250 / keyint_min=25 / scenecut=40 / intra_refresh=0 / rc_lookahead=60 / rc=2pass / mbtree=1 / bitrate=1901 / ratetol=1.0 / qcomp=0.60 / qpmin=0 / qpmax=69 / qpstep=4 / cplxblur=20.0 / qblur=0.5 / vbv_maxrate=50000 / vbv_bufsize=50000 / nal_hrd=none / ip_ratio=1.40 / aq=1:1.00
Язык : English
Default : Да
Forced : Нет

Аудио #1
Идентификатор : 2
Формат : AC-3
Формат/Информация : Audio Coding 3
Расширение режима : CM (complete main)
Параметр Endianness формата : Big
Идентификатор кодека : A_AC3
Продолжительность : 1 ч. 24 м.
Вид битрейта : Постоянный
Битрейт : 192 Кбит/сек
Каналы : 2 канала
Расположение каналов : Front: L R
Частота : 48,0 КГц
Метод сжатия : С потерями
Размер потока : 116 Мбайт (8%)
Язык : Russian
Default : Да
Forced : Нет

Аудио #2
Идентификатор : 3
Формат : AC-3
Формат/Информация : Audio Coding 3
Расширение режима : CM (complete main)
Параметр Endianness формата : Big
Идентификатор кодека : A_AC3
Продолжительность : 1 ч. 24 м.
Вид битрейта : Постоянный
Битрейт : 224 Кбит/сек
Каналы : 2 канала
Расположение каналов : Front: L R
Частота : 48,0 КГц
Метод сжатия : С потерями
Размер потока : 135 Мбайт (10%)
Язык : English
Default : Нет
Forced : Нет
Перевод: Александр Павлинов
Озвучание: Вячеслав Прошин
Монтаж и сведение звука: Илья Поляев
Релиз от:


_________________
Проголосуй за трекер Открытый торрент трекер - RUS-MEDIA.ORG

Проголосуй Открытый торрент трекер - RUS-MEDIA.ORG



реклама партнёра


Вернуться к началу
 Профиль Отправить личное сообщение  
 
   Похожие торренты   Автор   Торрент   Размер 
В этой теме нет новых непрочитанных сообщений. Санта Клаус 3 / Санта Клаус 3: Хозяин полюса / The Santa Clause 3: The Escape Clause [фэнтези, комедия, приключения, семейный, 2006] BDRip, Mvo

salma3

89 | 14

1.45 ГБ

В этой теме нет новых непрочитанных сообщений. Санта Мяус / Santa Claws [комедия, семейный, 2014] BDRip 1080p, Mvo

salma3

104 | 38

6.79 ГБ

В этой теме нет новых непрочитанных сообщений. Плохой Санта 2 / Bad Santa 2 (драма, комедия, криминал, 2016 ) WEB-DLRip | A

marya111

2681 | 159

740.32 МБ

В этой теме нет новых непрочитанных сообщений. Плохой Санта 2 / Bad Santa 2 [драма, комедия, криминал, 2016] WEB-DL 1080p, Dub [iTunes]

salma3

5730 | 1171

3.44 ГБ

В этой теме нет новых непрочитанных сообщений. Плохой Санта 2 / Bad Santa 2 [драма, комедия, криминал, 2016] WEB-DLRip, Dub [iTunes]

salma3

5010 | 772

1.37 ГБ

В этой теме нет новых непрочитанных сообщений. Плохой Санта 2 / Bad Santa 2 (Драма, комедия, криминал, 2016) WEB-DLRip от OlLanDGroup | Пучков

marya111

588 | 35

1.46 ГБ

В этой теме нет новых непрочитанных сообщений. Плохой Санта 2 / Bad Santa 2 ( Драма, комедия, криминал, 2016) WEB-DLRip-AVC от OlLanDGroup | Пучков

marya111

909 | 63

1.46 ГБ


Начать новую тему Ответить на тему  [ 1 сообщение ] 




Для Мосгорсуда, Роскомнадзора и рекламодателей:: mosgorsud-torrent[собачка]yandex.ru