Торрент файл
скачать торрент магнет ссылка Добавлен: 29 дек 2016, 11:54
Размер: 1.4 ГБ
Сидеров: 2024
Личеров: 556
Статус: (salma3)
Автор

СообщениеДобавлено: 29 дек 2016, 11:54 

Не в сети
Супермодератор
Аватара пользователя
Дата регистрации:
15 фев 2012, 16:44
Возраст: 28
Спасибо: 7203 / 2147
Сообщения: 65070
Год выпуска: 2016
Жанр: триллер, драма, детектив
Режиссер: Тейт Тейлор

В ролях: Эмили Блант, Хейли Беннетт, Ребекка Фергюсон, Джастин Теру, Люк Эванс, Эдгар Рамирес, Лора Припон, Эллисон Дженни, Лиза Кудроу

Описание:
Каждый день поезд проносит Рэйчел мимо очаровательного коттеджа, где живёт идеальная на первый взгляд пара. Но однажды идиллия разрушится — прекрасная незнакомка бесследно исчезнет. Рэйчел окажется втянута в весьма запутанную историю, ведь только она видела из окна то, что было скрыто ото всех...



Страна: США
Продолжительность: 01:52:05
Перевод: Профессиональный (полное дублирование)[iTunes]
Субтитры: Русские (вшитые, форсированные)

Формат: WEB-DLRip-AVC, MKV, H.264, AC3
Видео: 960x518 (1.85:1), 23.976 fps, AVC MPEG-4 (H.264), ~1367 kbps, 0.115 bit/pixel
Аудио: 48 kHz, AC3 Dolby Digital, 6 ch, ~384 kbps

Format : Matroska
Format version : Version 4 / Version 2
File size : 1.40 GiB
Duration : 1 h 52 min
Overall bit rate : 1 786 kb/s
Movie name : Девушка в поезде / The Girl on the Train (2016) :: AFM ::
Encoded date : UTC 2016-12-29 05:58:30
Writing application : mkvmerge v8.3.0 ('Over the Horizon') 32bit
Writing library : libebml v1.3.1 + libmatroska v1.4.2

Video
ID : 1
Format : AVC
Format/Info : Advanced Video Codec
Format profile :
Format settings, CABAC : Yes
Format settings, ReFrames : 10 frames
Codec ID : V_MPEG4/ISO/AVC
Duration : 1 h 52 min
Bit rate : 1 367 kb/s
Width : 960 pixels
Height : 518 pixels
Display aspect ratio : 1.85:1
Frame rate mode : Constant
Frame rate : 23.976 (24000/1001) FPS
Color space : YUV
Chroma subsampling : 4:2:0
Bit depth : 8 bits
Scan type : Progressive
Bits/(Pixel*Frame) : 0.115
Stream size : 1.07 GiB (77%)
Title : WEB-DLRip by AFM
Writing library : x264 core 148 r2744+55 950084e t_mod_Custom [8-bit@all X86_64]
Encoding settings : cabac=1 / ref=10 / deblock=1:-2:-2 / analyse=0x3:0x113 / me=umh / subme=10 / psy=1 / fade_compensate=0.00 / psy_rd=1.00:0.00 / mixed_ref=1 / me_range=32 / chroma_me=1 / trellis=2 / 8x8dct=1 / cqm=0 / deadzone=21,11 / fast_pskip=0 / chroma_qp_offset=-2 / threads=6 / lookahead_threads=1 / sliced_threads=0 / nr=0 / decimate=1 / interlaced=0 / bluray_compat=0 / constrained_intra=0 / fgo=0 / bframes=11 / b_pyramid=2 / b_adapt=2 / b_bias=0 / direct=1 / weightb=1 / open_gop=0 / weightp=2 / keyint=240 / keyint_min=23 / scenecut=40 / intra_refresh=0 / rc_lookahead=40 / rc=crf / mbtree=0 / crf=19.3500 / qcomp=0.65 / qpmin=0:0:0 / qpmax=69:69:69 / qpstep=4 / vbv_maxrate=50000 / vbv_bufsize=62500 / crf_max=0.0 / nal_hrd=none / filler=0 / ip_ratio=1.33 / pb_ratio=1.30 / aq=3:0.80 / aq-sensitivity=10.00 / aq-factor=1.00:1.00:1.00 / aq2=0 / aq3=0 / zones=153110,161239,q=30
Language : English
Default : Yes
Forced : No

Audio
ID : 2
Format : AC-3
Format/Info : Audio Coding 3
Mode extension : CM (complete main)
Format settings, Endianness : Big
Codec ID : A_AC3
Duration : 1 h 52 min
Bit rate mode : Constant
Bit rate : 384 kb/s
Channel(s) : 6 channels
Channel positions : Front: L C R, Side: L R, LFE
Sampling rate : 48.0 kHz
Frame rate : 31.250 FPS (1536 spf)
Compression mode : Lossy
Stream size : 308 MiB (21%)
Title : Dub, AC3 5.1 ~384 kbps
Language : Russian
Default : Yes
Forced : No

Menu
00:00:00.000 : en:1
00:06:02.779 : en:2
00:09:30.903 : en:3
00:18:16.970 : en:4
00:25:27.150 : en:5
00:32:05.506 : en:6
00:37:05.973 : en:7
00:44:53.315 : en:8
00:49:23.460 : en:9
00:55:08.012 : en:10
00:59:37.031 : en:11
01:03:35.811 : en:12
01:09:26.786 : en:13
01:14:37.429 : en:14
01:19:09.701 : en:15
01:23:45.727 : en:16
01:28:08.489 : en:17
01:33:50.455 : en:18
01:38:55.551 : en:19
01:45:56.179 : en:20





_________________
Проголосуй за трекер Открытый торрент трекер - RUS-MEDIA.ORG

Проголосуй Открытый торрент трекер - RUS-MEDIA.ORG


Вернуться к началу
 Профиль Отправить личное сообщение  
 
   Похожие торренты   Автор   Торрент   Размер 
В этой теме нет новых непрочитанных сообщений. Девушка в поезде / The Girl on the Train (триллер, драма, детектив, 2016) WEB-DLRip от Scarabey | iTunes

marya111

681 | 123

747.24 МБ

В этой теме нет новых непрочитанных сообщений. Девушка в поезде / The Girl on the Train (триллер, драма, детектив, 2016) BDRip от ExKinoRay | iTunes

marya111

911 | 130

1.41 ГБ

В этой теме нет новых непрочитанных сообщений. Девушка в поезде / The Girl on the Train (Триллер, детектив, 2016) HDRip от MegaPeer | iTunes

marya111

3328 | 634

1.46 ГБ

В этой теме нет новых непрочитанных сообщений. Девушка в поезде / The Girl on the Train (Триллер, детектив, 2016) BDRip 1080p от ExKinoRay | iTunes

marya111

849 | 304

10.78 ГБ

В этой теме нет новых непрочитанных сообщений. Девушка в поезде / The Girl on the Train (Триллер, детектив, 2016) BDRemux 1080p от ExKinoRay | iTunes

marya111

94 | 88

28.59 ГБ

В этой теме нет новых непрочитанных сообщений. Девушка в поезде / The Girl on the Train (Триллер, детектив, 2016) BDRip 1080p от New-Team & qqss44 | iTunes

marya111

1075 | 304

7.54 ГБ

В этой теме нет новых непрочитанных сообщений. Девушка в поезде / The Girl on the Train [Триллер, драма, детектив, 2016] DVD5, Dub

salma3

63 | 32

4.38 ГБ


Начать новую тему Ответить на тему  [ 1 сообщение ] 




Для Мосгорсуда, Роскомнадзора и рекламодателей:: mosgorsud-torrent[собачка]yandex.ru
cron