Торрент файл
скачать торрент магнет ссылка Добавлен: 28 дек 2016, 22:27
Размер: 2.91 ГБ
Сидеров: 81
Личеров: 44
Статус: (salma3)
Автор

СообщениеДобавлено: 28 дек 2016, 22:27 

Не в сети
Супермодератор
Аватара пользователя
Дата регистрации:
15 фев 2012, 16:44
Возраст: 28
Спасибо: 6593 / 2145
Сообщения: 44239
Год выпуска: 2014
Жанр: боевик, драма, военный, биография
Режиссер: Клинт Иствуд

В ролях: Брэдли Купер, Сиенна Миллер, Кайл Галлнер, Коул Конис, Бен Рид, Элиз Робертсон, Люк Саншайн, Трой Винсент, Брэндон Сальгадо, Кейр О’Доннелл

Описание:
Экранизация мемуаров «морского котика» из Техаса Криса Кайла, который служил снайпером в Ираке и стал рекордсменом по числу убитых солдат противника, за что иракцы прозвали его дьяволом. Кроме самой войны, фильм рассказывает о воспоминаниях жены Криса, которая была свидетелем растущей привязанности мужа к его сослуживцам.



Страна: США
Продолжительность: 02:12:40
Перевод: Профессиональный (полное дублирование)
Субтитры: Русские, украинские, английские


Формат: BDRip-AVC, MKV, H.264, AC3
Видео: 1080x450 (2.40:1), 23.976 fps, AVC MPEG-4 (H.264), ~2245 kbps, 0.193 bit/pixel
Аудио1:Русский: 48 kHz, AC3 Dolby Digital, 6 ch, ~448 kbps
Аудио2:Английский: 48 kHz, AC3 Dolby Digital, 6 ch, ~448 kbps

Автор рипа: potroks
Общее
Уникальный идентификатор : 181029648033431469334784270092350270138 (0x88310AC04FD8D837A5F08EB39D182ABA)
Полное имя : Snayper.2014.DUAL.BDRip.x264.-HELLYWOOD.mkv
Формат : Matroska
Версия формата : Version 4 / Version 2
Размер файла : 2,91 Гбайт
Продолжительность : 2 ч. 12 м.
Общий поток : 3143 Кбит/сек
Название фильма : American Sniper (2014) - HELLYWOOD
Дата кодирования : UTC 2015-05-19 18:04:43
Программа кодирования : mkvmerge v5.9.0 ('On The Loose') built on Dec 15 2012 16:39:58
Библиотека кодирования : libebml v1.3.0 + libmatroska v1.4.0

Видео
Идентификатор : 1
Формат : AVC
Формат/Информация : Advanced Video Codec
Профиль формата :
Параметр CABAC формата : Да
Параметр ReFrames формата : 9 кадров
Идентификатор кодека : V_MPEG4/ISO/AVC
Продолжительность : 2 ч. 12 м.
Битрейт : 2245 Кбит/сек
Ширина : 1080 пикселей
Высота : 450 пикселей
Соотношение сторон : 2,40:1
Режим частоты кадров : Постоянный
Частота кадров : 23,976 кадра/сек
Цветовое пространство : YUV
Субдискретизация насыщенности : 4:2:0
Битовая глубина : 8 бит
Тип развёртки : Прогрессивная
Бит/(Пиксели*Кадры) : 0.193
Размер потока : 2,02 Гбайт (70%)
Заголовок : potroks
Библиотека кодирования : x264 core 128 r2216M 198a7ea
Настройки программы : cabac=1 / ref=10 / deblock=1:-2:-2 / analyse=0x3:0x133 / me=umh / subme=11 / psy=1 / psy_rd=1.02:0.08 / mixed_ref=1 / me_range=48 / chroma_me=1 / trellis=2 / 8x8dct=1 / cqm=0 / deadzone=21,11 / fast_pskip=0 / chroma_qp_offset=-3 / threads=6 / lookahead_threads=1 / sliced_threads=0 / nr=0 / decimate=1 / interlaced=0 / bluray_compat=0 / constrained_intra=0 / bframes=12 / b_pyramid=1 / b_adapt=2 / b_bias=0 / direct=3 / weightb=1 / open_gop=0 / weightp=2 / keyint=250 / keyint_min=23 / scenecut=40 / intra_refresh=0 / rc_lookahead=40 / rc=2pass / mbtree=0 / bitrate=2245 / ratetol=1.0 / qcomp=0.72 / qpmin=0 / qpmax=69 / qpstep=4 / cplxblur=20.0 / qblur=0.5 / vbv_maxrate=62500 / vbv_bufsize=62500 / nal_hrd=none / ip_ratio=1.35 / pb_ratio=1.25 / aq=1:0.85
Язык : English
Default : Да
Forced : Нет

Аудио #1
Идентификатор : 2
Формат : AC-3
Формат/Информация : Audio Coding 3
Расширение режима : CM (complete main)
Параметр Endianness формата : Big
Идентификатор кодека : A_AC3
Продолжительность : 2 ч. 12 м.
Вид битрейта : Постоянный
Битрейт : 448 Кбит/сек
Каналы : 6 каналов
Расположение каналов : Front: L C R, Side: L R, LFE
Частота : 48,0 КГц
Битовая глубина : 16 бит
Метод сжатия : С потерями
Размер потока : 425 Мбайт (14%)
Заголовок : Dub | DD 5.1 @ 448 kbps - Blu-Ray CEE
Язык : Russian
Default : Да
Forced : Нет

Аудио #2
Идентификатор : 3
Формат : AC-3
Формат/Информация : Audio Coding 3
Расширение режима : CM (complete main)
Параметр Endianness формата : Big
Идентификатор кодека : A_AC3
Продолжительность : 2 ч. 12 м.
Вид битрейта : Постоянный
Битрейт : 448 Кбит/сек
Каналы : 6 каналов
Расположение каналов : Front: L C R, Side: L R, LFE
Частота : 48,0 КГц
Битовая глубина : 16 бит
Метод сжатия : С потерями
Размер потока : 425 Мбайт (14%)
Заголовок : Original | DD 5.1 @ 448 kbps
Язык : English
Default : Нет
Forced : Нет

Текст #1
Идентификатор : 4
Формат : UTF-8
Идентификатор кодека : S_TEXT/UTF8
Идентификатор кодека/Информация : UTF-8 Plain Text
Заголовок : форс.
Язык : Russian
Default : Да
Forced : Нет

Текст #2
Идентификатор : 5
Формат : UTF-8
Идентификатор кодека : S_TEXT/UTF8
Идентификатор кодека/Информация : UTF-8 Plain Text
Язык : Russian
Default : Нет
Forced : Нет

Текст #3
Идентификатор : 6
Формат : UTF-8
Идентификатор кодека : S_TEXT/UTF8
Идентификатор кодека/Информация : UTF-8 Plain Text
Заголовок : форс.
Язык : Ukrainian
Default : Нет
Forced : Нет

Текст #4
Идентификатор : 7
Формат : UTF-8
Идентификатор кодека : S_TEXT/UTF8
Идентификатор кодека/Информация : UTF-8 Plain Text
Язык : Ukrainian
Default : Нет
Forced : Нет

Текст #5
Идентификатор : 8
Формат : UTF-8
Идентификатор кодека : S_TEXT/UTF8
Идентификатор кодека/Информация : UTF-8 Plain Text
Заголовок : Full
Язык : English
Default : Нет
Forced : Нет

Текст #6
Идентификатор : 9
Формат : UTF-8
Идентификатор кодека : S_TEXT/UTF8
Идентификатор кодека/Информация : UTF-8 Plain Text
Заголовок : SDH
Язык : English
Default : Нет
Forced : Нет

Текст #7
Идентификатор : 10
Формат : UTF-8
Идентификатор кодека : S_TEXT/UTF8
Идентификатор кодека/Информация : UTF-8 Plain Text
Заголовок : SDH-Colored
Язык : English
Default : Нет
Forced : Нет

Меню
00:00:00.000 : en:(01)00:00:00:000
00:10:15.239 : en:(02)00:10:15:239
00:18:56.926 : en:(03)00:18:56:926
00:28:27.579 : en:(04)00:28:27:579
00:39:04.425 : en:(05)00:39:04:425
00:50:57.637 : en:(06)00:50:57:637
01:00:06.728 : en:(07)01:00:06:728
01:07:56.447 : en:(08)01:07:56:447
01:28:44.027 : en:(09)01:28:44:027
01:37:24.712 : en:(10)01:37:24:712
01:45:57.350 : en:(11)01:45:57:350
01:54:44.002 : en:(12)01:54:44:002
02:04:13.362 : en:(13)02:04:13:362
02:12:39.618 : en:(14)02:12:39:618





_________________
Проголосуй за трекер Открытый торрент трекер - RUS-MEDIA.ORG

Проголосуй Открытый торрент трекер - RUS-MEDIA.ORG



реклама партнёра


Вернуться к началу
 Профиль Отправить личное сообщение  
 
   Похожие торренты   Автор   Торрент   Размер 
В этой теме нет новых непрочитанных сообщений. Снайпер / American Sniper (Клинт Иствуд) [боевик, драма, военный, биография, 2014] BDRip 720p, Dub [iTunes]

Dracon

7 | 3

5.78 ГБ

В этой теме нет новых непрочитанных сообщений. Снайпер / American Sniper (Клинт Иствуд) [боевик, драма, военный, биография, 2014] DVDScr, dvo

Dracon

3325 | 141

1.46 ГБ

В этой теме нет новых непрочитанных сообщений. Снайпер / American Sniper (Клинт Иствуд) [боевик, драма, военный, биография, 2014] DVDScr, Mvo

Dracon

57 | 3

1.46 ГБ

В этой теме нет новых непрочитанных сообщений. Снайпер / American Sniper (Клинт Иствуд) [боевик, драма, военный, биография, 2014] DVDScr, Mvo

Dracon

21 | 3

2.05 ГБ

В этой теме нет новых непрочитанных сообщений. Снайпер / American Sniper (Клинт Иствуд) [боевик, драма, военный, биография, 2014] DVDScr, dvo

Dracon

2002 | 73

2.05 ГБ

В этой теме нет новых непрочитанных сообщений. Снайпер / American Sniper (Клинт Иствуд) [боевик, драма, военный, биография, 2014] HDRip, Dub [iTunes]

Dracon

5 | 1

1.37 ГБ

В этой теме нет новых непрочитанных сообщений. Снайпер / American Sniper (Клинт Иствуд) [боевик, драма, военный, биография, 2014] DVD5, Dub+Sub [лицензия]

Dracon

44 | 3

4.36 ГБ


Начать новую тему Ответить на тему  [ 1 сообщение ] 




Для Мосгорсуда, Роскомнадзора и рекламодателей:: mosgorsud-torrent[собачка]yandex.ru