Торрент файл
скачать торрент магнет ссылка Добавлен: 25 дек 2016, 21:55
Размер: 2.17 ГБ
Сидеров: 34
Личеров: 21
Статус: (salma3)
Автор

СообщениеДобавлено: 25 дек 2016, 21:55 

Не в сети
Супермодератор
Аватара пользователя
Дата регистрации:
15 фев 2012, 16:44
Возраст: 28
Спасибо: 6565 / 2130
Сообщения: 43671
Страна: США
Жанр: боевик
Год выпуска: 1996
Продолжительность: 01:30:36

Перевод 1: Профессиональный (многоголосый закадровый) R5
Перевод 2: Авторский (одноголосый закадровый) Андрей Гаврилов

Cубтитры: нет
Оригинальная аудиодорожка: английский

Режиссер: Пол Зиллер / Paul Ziller

В ролях: Бретт Бакстер Кларк, Кристи Эйзенберг, Хорхе Джил, Марк Маколей, Чейз Рэндолф, Джон Салвитти, Билл Шоу, Боло Йенг, Уильям Забка, Майкл Бернардо

Описание: Сын Лу Роулинса, полицейского из Сан-Франциско, погиб в Майами от рук организатора поединков насмерть - кровавого развлечения местных мафиози. Отец поклялся отомстить бандитам и раздавить всю группировку, прекратив, таким образом, чудовищные схватки современных гладиаторов. Он собирает свою команду бойцов, во главе которой становится учитель восточных единоборств, уроженец Гонконга Шинго. Каждому из них ненавистно жестокое зрелище, и они не оставляют шансов кровожадным преступникам...

Автор рипа: Sem-teРелиз от:

Качество видео: HDRip-AVC
Формат видео: MKV

Видео: MPEG-4 AVC, 2595 Кбит/с, 1024x576, 23.976 fps
Аудио 1: 48 kHz, AC3 Dolby Digital, 2/0 (L,R) ch, ~192 kbps | R5
Аудио 2: 48 kHz, AC3 Dolby Digital, 2/0 (L,R) ch, ~192 kbps | Андрей Гаврилов
Аудио 3: 48 kHz, AC3 Dolby Digital, 3/2 (L,C,R,l,r) + LFE ch, ~448 kbps | Original Eng

General
Unique ID : 235125724539365599847739136189156420287 (0xB0E3913E69F6E341810187EF6C89EABF)
Format : Matroska
Format version : Version 2
File size : 2.17 GiB
Duration : 1h 30mn
Overall bit rate : 3 429 Kbps
Encoded date : UTC 2016-12-25 12:28:47
Writing application : mkvmerge v7.8.0 ('River Man') 32bit built on Apr 3 2015 12:11:22
Writing library : libebml v1.3.1 + libmatroska v1.4.2

Video
ID : 1
Format : AVC
Format/Info : Advanced Video Codec
Format profile : High@L4.1
Format settings, CABAC : Yes
Format settings, ReFrames : 11 frames
Codec ID : V_MPEG4/ISO/AVC
Duration : 1h 30mn
Bit rate : 2 595 Kbps
Width : 1 024 pixels
Height : 576 pixels
Display aspect ratio : 16:9
Frame rate mode : Constant
Frame rate : 23.976 fps
Color space : YUV
Chroma subsampling : 4:2:0
Bit depth : 8 bits
Scan type : Progressive
Bits/(Pixel*Frame) : 0.184
Stream size : 1.60 GiB (74%)
Writing library : x264 core 146 r2538 121396c
Encoding settings : cabac=1 / ref=11 / deblock=1:-2:-1 / analyse=0x3:0x133 / me=umh / subme=11 / psy=1 / psy_rd=1.00:0.20 / mixed_ref=1 / me_range=32 / chroma_me=1 / trellis=2 / 8x8dct=1 / cqm=0 / deadzone=21,11 / fast_pskip=1 / chroma_qp_offset=-3 / threads=3 / lookahead_threads=1 / sliced_threads=0 / nr=0 / decimate=1 / interlaced=0 / bluray_compat=0 / constrained_intra=0 / bframes=11 / b_pyramid=2 / b_adapt=2 / b_bias=0 / direct=3 / weightb=1 / open_gop=0 / weightp=2 / keyint=250 / keyint_min=23 / scenecut=40 / intra_refresh=0 / rc_lookahead=60 / rc=2pass / mbtree=1 / bitrate=2595 / ratetol=1.0 / qcomp=0.60 / qpmin=0 / qpmax=69 / qpstep=4 / cplxblur=20.0 / qblur=0.5 / ip_ratio=1.40 / aq=1:1.00
Default : Yes
Forced : No

Audio #1
ID : 2
Format : AC-3
Format/Info : Audio Coding 3
Mode extension : CM (complete main)
Format settings, Endianness : Big
Codec ID : A_AC3
Duration : 1h 30mn
Bit rate mode : Constant
Bit rate : 192 Kbps
Channel(s) : 2 channels
Channel positions : Front: L R
Sampling rate : 48.0 KHz
Bit depth : 16 bits
Compression mode : Lossy
Stream size : 124 MiB (6%)
Title : R5
Language : Russian
Default : Yes
Forced : No

Audio #2
ID : 3
Format : AC-3
Format/Info : Audio Coding 3
Mode extension : CM (complete main)
Format settings, Endianness : Big
Codec ID : A_AC3
Duration : 1h 30mn
Bit rate mode : Constant
Bit rate : 192 Kbps
Channel(s) : 2 channels
Channel positions : Front: L R
Sampling rate : 48.0 KHz
Bit depth : 16 bits
Compression mode : Lossy
Stream size : 124 MiB (6%)
Title : Андрей Гаврилов
Language : Russian
Default : No
Forced : No

Audio #3
ID : 4
Format : AC-3
Format/Info : Audio Coding 3
Mode extension : CM (complete main)
Format settings, Endianness : Big
Codec ID : A_AC3
Duration : 1h 30mn
Bit rate mode : Constant
Bit rate : 448 Kbps
Channel(s) : 6 channels
Channel positions : Front: L C R, Side: L R, LFE
Sampling rate : 48.0 KHz
Bit depth : 16 bits
Compression mode : Lossy
Stream size : 290 MiB (13%)
Language : English
Default : No
Forced : No




_________________
Проголосуй за трекер Открытый торрент трекер - RUS-MEDIA.ORG

Проголосуй Открытый торрент трекер - RUS-MEDIA.ORG



реклама партнёра


Вернуться к началу
 Профиль Отправить личное сообщение  
 
   Похожие торренты   Автор   Торрент   Размер 
В этой теме нет новых непрочитанных сообщений. Сильнейший удар 2 / Shootfighter II [боевик, 1996] HDRip, Avo [Гаврилов]

salma3

104 | 50

1.46 ГБ

В этой теме нет новых непрочитанных сообщений. Сильнейший удар: Бой до смерти / Shootfighter: Fight to the Death [боевик, 1992] DVDRip, Dvo [Рен ТВ]

salma3

64 | 4

1.46 ГБ

В этой теме нет новых непрочитанных сообщений. Сильнейший удар: Бой до смерти / Shootfighter: Fight to the Death [Боевик, боевые искусства, 1992] BDRip 1080p, Dvo

salma3

82 | 25

7.06 ГБ

В этой теме нет новых непрочитанных сообщений. Первый удар / First Strike [Боевик, триллер, драма, 1996] HDRip, Mvo [HTB]

salma3

14 | 3

1.37 ГБ

В этой теме нет новых непрочитанных сообщений. Дрожь земли 2: Повторный удар / Tremors II: Aftershocks [ужасы, фантастика, боевик, 1996] HDRip-AVC, Mvo

salma3

122 | 23

745.02 МБ

В этой теме нет новых непрочитанных сообщений. Подлый удар / Lowball [боевик, драма, криминал, 1996] DVDRip, Dvo

salma3

22 | 2

1.12 ГБ

В этой теме нет новых непрочитанных сообщений. Первый удар / First Strike [боевик, триллер, комедия, 1996] DVDRip, Mvo

salma3

67 | 5

1.37 ГБ


Начать новую тему Ответить на тему  [ 1 сообщение ] 




Для Мосгорсуда, Роскомнадзора и рекламодателей:: mosgorsud-torrent[собачка]yandex.ru