Торрент файл
скачать торрент магнет ссылка Добавлен: 24 дек 2016, 13:06
Размер: 1.94 ГБ
Сидеров: 308
Личеров: 44
Статус: (salma3)
Автор

СообщениеДобавлено: 24 дек 2016, 13:06 

В сети
Супермодератор
Аватара пользователя
Дата регистрации:
15 фев 2012, 16:44
Возраст: 28
Спасибо: 7165 / 2147
Сообщения: 62336
Страна: США
Жанр: фантастика, триллер
Год выпуска: 2001
Продолжительность: 01:32:53
Перевод: Профессиональный (двухголосый, закадровый)
Режиссер: Мэтт Кодд / Matt Codd

В ролях: Дэвид Кит, Стефани Нижник, Райан О’Нил, Брайан Томпсон, Стив Бонд, Крейг Уоссон, Майкл Кавана, Шеннон Ли, Джеймс Эйври, Джеймс Хонг, Джо Келли, Дональд Ли, Уильям Забка, Марк МакКлюр, Элой Касадос, Рауль Джулия-Леви, Донна Маньяни, Ричард Китс, Джон МакКук, Морган Хельвиг

Описание: Когда наша планета еще была безжизненным камнем во мраке вселенной, ее посетил огромный таинственный гость. Проникнув в толщи Земли, он ждал миллиарды лет, чтобы в наши дни пробудиться и подняться на поверхность на глазах у потрясенных очевидцев.



Качество: DVDRip
Контейнер: MKV
Видео: AVC, 712x544 @ 1012x544 (1.85:1), 2100 kbps, 25 fps, 0,217 bpp
Аудио №1: русский / AC3 / 5.1 / 48 kHz / 448 kbps / DVO
Аудио №2: английский / AC3 / 2.0 / 48 kHz / 224 kbps
Аудио №3: немецкий / AC3 / 2.0 / 48 kHz / 224 kbps
Навигация по главам: есть

Формат : Matroska
Версия формата : Version 2
Размер файла : 1,94 Гбайт
Продолжительность : 1 ч. 32 м.
Общий поток : 2997 Кбит/сек
Название фильма : = Эпоха / Epoch (2001) DVDRip-AVC by SC Kosmos =
Дата кодирования : UTC 2016-12-22 17:28:23
Программа кодирования : mkvmerge v5.8.0 ('No Sleep / Pillow') built on Sep 2 2012 15:37:04
Библиотека кодирования : libebml v1.2.3 + libmatroska v1.3.0
Attachment : Yes
Видео
Идентификатор : 1
Формат : AVC
Формат/Информация : Advanced Video Codec
Профиль формата : High@L4.1
Параметр CABAC формата : Да
Параметр ReFrames формата : 10 кадров
Идентификатор кодека : V_MPEG4/ISO/AVC
Продолжительность : 1 ч. 32 м.
Битрейт : 2100 Кбит/сек
Ширина : 712 пикселей
Высота : 544 пикселя
Соотношение сторон : 1,85:1
Соотношение сторон в оригинале : 1,85:1
Режим частоты кадров : Постоянный
Частота кадров : 25,000 кадров/сек
Цветовое пространство : YUV
Субдискретизация насыщенности : 4:2:0
Битовая глубина : 8 бит
Тип развёртки : Прогрессивная
Бит/(Пиксели*Кадры) : 0.217
Размер потока : 1,32 Гбайт (68%)
Заголовок : Эпоха / Epoch (2001) DVDRip-AVC by SC Kosmos
Библиотека кодирования : x264 core 148 r2705 3f5ed56
Настройки программы : cabac=1 / ref=10 / deblock=1:-1:-1 / analyse=0x3:0x113 / me=umh / subme=11 / psy=1 / psy_rd=1.00:0.00 / mixed_ref=1 / me_range=32 / chroma_me=1 / trellis=2 / 8x8dct=1 / cqm=0 / deadzone=21,11 / fast_pskip=0 / chroma_qp_offset=-2 / threads=12 / lookahead_threads=3 / sliced_threads=0 / nr=0 / decimate=0 / interlaced=0 / bluray_compat=0 / constrained_intra=0 / bframes=10 / b_pyramid=2 / b_adapt=2 / b_bias=0 / direct=3 / weightb=1 / open_gop=0 / weightp=2 / keyint=250 / keyint_min=25 / scenecut=40 / intra_refresh=0 / rc_lookahead=40 / rc=2pass / mbtree=0 / bitrate=2100 / ratetol=1.0 / qcomp=0.60 / qpmin=0 / qpmax=69 / qpstep=4 / cplxblur=20.0 / qblur=0.5 / vbv_maxrate=62500 / vbv_bufsize=78125 / nal_hrd=none / filler=0 / ip_ratio=1.40 / pb_ratio=1.30 / aq=1:0.90
Язык : English
Default : Да
Forced : Нет
Аудио #1
Идентификатор : 2
Формат : AC-3
Формат/Информация : Audio Coding 3
Расширение режима : CM (complete main)
Параметр Endianness формата : Big
Идентификатор кодека : A_AC3
Продолжительность : 1 ч. 32 м.
Вид битрейта : Постоянный
Битрейт : 448 Кбит/сек
Каналы : 6 каналов
Расположение каналов : Front: L C R, Side: L R, LFE
Частота : 48,0 КГц
Битовая глубина : 16 бит
Метод сжатия : С потерями
Размер потока : 298 Мбайт (15%)
Заголовок : DVO
Язык : Russian
Default : Да
Forced : Нет
Аудио #2
Идентификатор : 3
Формат : AC-3
Формат/Информация : Audio Coding 3
Профиль формата : Dolby Digital
Расширение режима : CM (complete main)
Параметр Endianness формата : Big
Идентификатор кодека : A_AC3
Продолжительность : 1 ч. 32 м.
Вид битрейта : Постоянный
Битрейт : 224 Кбит/сек
Каналы : 2 канала
Расположение каналов : Front: L R
Частота : 48,0 КГц
Битовая глубина : 16 бит
Метод сжатия : С потерями
Размер потока : 149 Мбайт (7%)
Язык : English
Default : Нет
Forced : Нет
Аудио #3
Идентификатор : 4
Формат : AC-3
Формат/Информация : Audio Coding 3
Профиль формата : Dolby Digital
Расширение режима : CM (complete main)
Параметр Endianness формата : Big
Идентификатор кодека : A_AC3
Продолжительность : 1 ч. 32 м.
Вид битрейта : Постоянный
Битрейт : 224 Кбит/сек
Каналы : 2 канала
Расположение каналов : Front: L R
Частота : 48,0 КГц
Битовая глубина : 16 бит
Метод сжатия : С потерями
Размер потока : 149 Мбайт (7%)
Язык : German
Default : Нет
Forced : Нет
Меню
00:00:00.000 : en:Chapter 01
00:02:48.960 : en:Chapter 02
00:05:35.520 : en:Chapter 03
00:07:41.280 : en:Chapter 04
00:12:21.600 : en:Chapter 05
00:14:38.400 : en:Chapter 06
00:21:19.680 : en:Chapter 07
00:26:55.200 : en:Chapter 08
00:39:20.160 : en:Chapter 09
00:44:24.000 : en:Chapter 10
00:50:26.880 : en:Chapter 11
00:55:45.600 : en:Chapter 12
01:03:25.880 : en:Chapter 13
01:09:40.760 : en:Chapter 14
01:18:38.360 : en:Chapter 15
01:22:13.880 : en:Chapter 16
01:25:29.240 : en:Chapter 17
01:28:02.360 : en:Chapter 18




_________________
Проголосуй за трекер Открытый торрент трекер - RUS-MEDIA.ORG

Проголосуй Открытый торрент трекер - RUS-MEDIA.ORG


Вернуться к началу
 Профиль Отправить личное сообщение  
 
   Похожие торренты   Автор   Торрент   Размер 
В этой теме нет новых непрочитанных сообщений. Эпоха за эпохой / Time After Time [01x01 из 12] [Фантастика, драма, 2017] WEBRip, Mvo [IdeaFilm]

salma3

38 | 3

530 МБ

В этой теме нет новых непрочитанных сообщений. Эпоха за эпохой / Time After Time [01x01 из 12] [Фантастика, драма, 2017] WEBRip 720p, Mvo [IdeaFilm]

salma3

36 | 7

1.28 ГБ

В этой теме нет новых непрочитанных сообщений. Джейсон X / Jason X [ужасы, фантастика, триллер, 2001] WEB-DL 720p, Mvo

salma3

0 | 0

2.87 ГБ

В этой теме нет новых непрочитанных сообщений. Репликант / Replicant [Фантастика, боевик, триллер, 2001] BDRip-AVC, Dub

salma3

102 | 8

745.75 МБ

В этой теме нет новых непрочитанных сообщений. Эпоха невинности / Soonsooui sidae [боевик, драма, мелодрама, 2015] DVDRip-AVC, Dvo

salma3

728 | 76

1.44 ГБ

В этой теме нет новых непрочитанных сообщений. Противостояние / Единственный / Один / The One [фантастика, боевик, триллер, 2001] BDRip 1080p, Mvo

salma3

11 | 7

11.97 ГБ

В этой теме нет новых непрочитанных сообщений. Противостояние / Единственный / Один / The One [Фантастика, боевик, триллер, 2001] BDRip 1080p, Mvo

salma3

34 | 2

4.37 ГБ


Начать новую тему Ответить на тему  [ 1 сообщение ] 




Для Мосгорсуда, Роскомнадзора и рекламодателей:: mosgorsud-torrent[собачка]yandex.ru
cron