Торрент файл
скачать торрент магнет ссылка Добавлен: 21 дек 2016, 14:07
Размер: 2.18 ГБ
Сидеров: 106
Личеров: 47
Статус: (salma3)
Автор

СообщениеДобавлено: 21 дек 2016, 14:07 

Не в сети
Супермодератор
Аватара пользователя
Дата регистрации:
15 фев 2012, 16:44
Возраст: 28
Спасибо: 7163 / 2147
Сообщения: 61885
Три девятки / Triple 9

Год выхода: 2016
Жанр: криминал, драма, триллер
Режиссер: Джон Хиллкоут

В ролях: Аарон Пол, Кейт Уинслет, Вуди Харрельсон, Кейси Аффлек, Энтони Маки, Чиветель Эджиофор, Галь Гадот, Норман Ридус, Тереза Палмер, Майкл Кеннет Уильямс

О фильме:
Банда преступников и коррумпированных копов планирует убить полицейского, чтобы провернуть ограбление на другом конце города.



Выпущено: США
Продолжительность: 01:55:46
Озвучивание: Дублированное [Лицензия]

Файл
Качество: BDRip
Кодек: XviD
Видео: 720x304 (2,35:1), 23,976 fps, XviD ~1788 Кbps avg, 0.341 bit/pixel
Аудио: 48 kHz, AC3, 6 ch, ~448.00 kbps avg
Аудио: AC3, 48 kHz, 6 ch, ~448.00 kbps avg


Семпл

Общее
Полное имя : D:TorrentsЗавершенныеTriple.9.2016.D.MVO.BDRip.avi
Формат : AVI
Формат/Информация : Audio Video Interleave
Профиль формата : OpenDML
Размер файла : 2,18 Гбайт
Продолжительность : 1 ч. 55 м.
Общий поток : 2702 Кбит/сек
Программа кодирования : VirtualDubMod 1.5.10.3 (build 2550/release)
Библиотека кодирования : VirtualDubMod build 2550/release
Видео
Идентификатор : 0
Формат : MPEG-4 Visual
Профиль формата : Advanced Simple@L5
Параметр BVOP формата : 1
Параметр QPel формата : Нет
Параметр GMC формата : Без точки перехода
Параметр матрицы формата : Выборочная
Идентификатор кодека : XVID
Идентификатор кодека/Подсказка : XviD
Продолжительность : 1 ч. 55 м.
Битрейт : 1788 Кбит/сек
Ширина : 720 пикселей
Высота : 304 пикселя
Соотношение сторон : 2,35:1
Частота кадров : 23,976 кадра/сек
Цветовое пространство : YUV
Субдискретизация насыщенности : 4:2:0
Битовая глубина : 8 бит
Тип развёртки : Прогрессивная
Метод сжатия : С потерями
Бит/(Пиксели*Кадры) : 0.341
Размер потока : 1,45 Гбайт (66%)
Библиотека кодирования : XviD 73
Аудио #1
Идентификатор : 1
Формат : AC-3
Формат/Информация : Audio Coding 3
Расширение режима : CM (complete main)
Параметр Endianness формата : Big
Идентификатор кодека : 2000
Продолжительность : 1 ч. 55 м.
Вид битрейта : Постоянный
Битрейт : 448 Кбит/сек
Каналы : 6 каналов
Расположение каналов : Front: L C R, Side: L R, LFE
Частота : 48,0 КГц
Метод сжатия : С потерями
Размер потока : 371 Мбайт (17%)
Выравнивание : Разделение по промежуткам
Продолжительность промежутка : 42 мс. (1,00 видеокадр)
Время предзагрузки промежутка : 500 мс.
Аудио #2
Идентификатор : 2
Формат : AC-3
Формат/Информация : Audio Coding 3
Расширение режима : CM (complete main)
Параметр Endianness формата : Big
Идентификатор кодека : 2000
Продолжительность : 1 ч. 55 м.
Вид битрейта : Постоянный
Битрейт : 448 Кбит/сек
Каналы : 6 каналов
Расположение каналов : Front: L C R, Side: L R, LFE
Частота : 48,0 КГц
Метод сжатия : С потерями
Размер потока : 371 Мбайт (17%)
Выравнивание : Разделение по промежуткам
Продолжительность промежутка : 42 мс. (1,00 видеокадр)
Время предзагрузки промежутка : 500 мс.


_________________
Проголосуй за трекер Открытый торрент трекер - RUS-MEDIA.ORG

Проголосуй Открытый торрент трекер - RUS-MEDIA.ORG


Вернуться к началу
 Профиль Отправить личное сообщение  
 
   Похожие торренты   Автор   Торрент   Размер 
В этой теме нет новых непрочитанных сообщений. Три девятки / Triple 9 [Криминал, драма, триллер, 2016] BDRip-AVC, Dub [Лицензия]

salma3

200 | 74

2.41 ГБ

В этой теме нет новых непрочитанных сообщений. Три девятки / Triple 9 [криминал, драма, триллер, 2016] BDRip, Dub [Лицензия]

salma3

793 | 348

1.46 ГБ

В этой теме нет новых непрочитанных сообщений. Три девятки / Triple 9 [Криминал, драма, триллер, 2016] BDRip 720p, Dub [Лицензия]

salma3

56 | 18

10.14 ГБ

В этой теме нет новых непрочитанных сообщений. Три девятки / Triple 9 (Криминал, драма, триллер, 2016) BDRip-AVC от ExKinoRay | Лицензия

marya111

244 | 25

1.46 ГБ

В этой теме нет новых непрочитанных сообщений. Три девятки / Triple 9 [Криминал, драма, триллер, 2016] BDRip 1080p, Dub [Лицензия]

salma3

60 | 147

12.37 ГБ

В этой теме нет новых непрочитанных сообщений. Три девятки / Triple 9 [криминал, драма, триллер, 2016] HDRip, Dub [Лицензия]

salma3

413 | 96

746.98 МБ

В этой теме нет новых непрочитанных сообщений. Три девятки / Triple 9 [криминал, драма, триллер, 2016] HDRip, avo

marya111

108 | 15

1.45 ГБ


Начать новую тему Ответить на тему  [ 1 сообщение ] 




Для Мосгорсуда, Роскомнадзора и рекламодателей:: mosgorsud-torrent[собачка]yandex.ru
cron