Торрент файл
скачать торрент магнет ссылка Добавлен: 17 дек 2016, 21:54
Размер: 2.74 ГБ
Сидеров: 2
Личеров: 3
Статус: (salma3)
Автор

СообщениеДобавлено: 17 дек 2016, 21:54 

Не в сети
Супермодератор
Аватара пользователя
Дата регистрации:
15 фев 2012, 16:44
Возраст: 28
Спасибо: 7224 / 2147
Сообщения: 67920
Год выхода: 2011
Жанр: мелодрама, комедия
Режиссер: Даниэль Санчес Аревало

В ролях: Куим Гутьеррес, Инма Куэста, Рауль Аревало, Антонио де ла Торре, Адриан Ластра, Клара Лаго, Нурия Гэго, Алисия Рубио, Маркос Руис

О фильме:
Молодого Диего ровно накануне свадьбы бросает невеста. Он придумывает план, согласно которому пропажу невесты необходимо скрыть, появиться в церкви в день свадьбы, напиться, прочитать речь, заново влюбиться в свою первую подружку… и вернуть невесту.



Страна: Испания
Студия: Mod Producciones, AXN, Atípica Films
Продолжительность: 01:38:59
Перевод: Профессиональный [многоголосый]

Файл
Кодек: x264
Качество: HDRip-AVC
Видео: MPEG-4 AVC, 3062 Кбит/с, 1024x552, 24 кадр/с
Аудио #1: АС3, 6 ch, 448 Кбит/с | Русский
Аудио #2: АС3, 6 ch, 448 Кбит/с | Испанский
Субтитры: Английские, испанские

Общее
Уникальный идентификатор : 171951416286325410747489846097247897320 (0x815CA35E7D9B4FFB9ACA31C4AF1E86E8)
Полное имя : Primos.2011.HDRip-AVC.mkv
Формат : Matroska
Версия формата : Version 4 / Version 2
Размер файла : 2,74 Гбайт
Продолжительность : 1 ч. 40 м.
Общий поток : 3899 Кбит/сек
Название фильма : Primos.2011 by Koenig
Дата кодирования : UTC 2016-12-17 09:58:50
Программа кодирования : mkvmerge v9.2.0 ('Photograph') 32bit
Библиотека кодирования : libebml v1.3.3 + libmatroska v1.4.4
Обложка : Yes
Attachments : cover.jpg

Видео
Идентификатор : 1
Формат : AVC
Формат/Информация : Advanced Video Codec
Профиль формата : High@L4.1
Параметр CABAC формата : Да
Параметр ReFrames формата : 9 кадров
Идентификатор кодека : V_MPEG4/ISO/AVC
Продолжительность : 1 ч. 38 м.
Битрейт : 3062 Кбит/сек
Ширина : 1024 пикселя
Высота : 552 пикселя
Соотношение сторон : 1,85:1
Режим частоты кадров : Постоянный
Частота кадров : 24,000 кадра/сек
Цветовое пространство : YUV
Субдискретизация насыщенности : 4:2:0
Битовая глубина : 8 бит
Тип развёртки : Прогрессивная
Бит/(Пиксели*Кадры) : 0.226
Размер потока : 2,11 Гбайт (77%)
Заголовок : Primos
Библиотека кодирования : x264 core 148 r2692 64f4e24
Настройки программы : cabac=1 / ref=9 / deblock=1:-3:-3 / analyse=0x3:0x133 / me=umh / subme=11 / psy=1 / psy_rd=1.05:0.05 / mixed_ref=1 / me_range=32 / chroma_me=1 / trellis=2 / 8x8dct=1 / cqm=0 / deadzone=21,11 / fast_pskip=1 / chroma_qp_offset=-3 / threads=3 / lookahead_threads=1 / sliced_threads=0 / nr=0 / decimate=1 / interlaced=0 / bluray_compat=0 / constrained_intra=0 / bframes=11 / b_pyramid=2 / b_adapt=2 / b_bias=0 / direct=3 / weightb=1 / open_gop=0 / weightp=2 / keyint=240 / keyint_min=24 / scenecut=40 / intra_refresh=0 / rc_lookahead=50 / rc=2pass / mbtree=1 / bitrate=3062 / ratetol=1.0 / qcomp=0.60 / qpmin=0 / qpmax=51 / qpstep=4 / cplxblur=20.0 / qblur=0.5 / vbv_maxrate=50000 / vbv_bufsize=62500 / nal_hrd=none / filler=0 / ip_ratio=1.40 / aq=1:1.00
Default : Да
Forced : Нет

Аудио #1
Идентификатор : 2
Формат : AC-3
Формат/Информация : Audio Coding 3
Расширение режима : CM (complete main)
Параметр Endianness формата : Big
Идентификатор кодека : A_AC3
Продолжительность : 1 ч. 38 м.
Вид битрейта : Постоянный
Битрейт : 448 Кбит/сек
Каналы : 6 каналов
Расположение каналов : Front: L C R, Side: L R, LFE
Частота : 48,0 КГц
Частота кадров : 31,250 кадров/сек (1536 spf)
Битовая глубина : 16 бит
Метод сжатия : С потерями
Размер потока : 317 Мбайт (11%)
Заголовок : MVO
Язык : Russian
Default : Да
Forced : Нет

Аудио #2
Идентификатор : 3
Формат : AC-3
Формат/Информация : Audio Coding 3
Расширение режима : CM (complete main)
Параметр Endianness формата : Big
Идентификатор кодека : A_AC3
Продолжительность : 1 ч. 40 м.
Вид битрейта : Постоянный
Битрейт : 448 Кбит/сек
Каналы : 6 каналов
Расположение каналов : Front: L C R, Side: L R, LFE
Частота : 48,0 КГц
Частота кадров : 31,250 кадров/сек (1536 spf)
Битовая глубина : 16 бит
Метод сжатия : С потерями
Размер потока : 322 Мбайт (11%)
Язык : Spanish
Default : Нет
Forced : Нет

Текст #1
Идентификатор : 4
Формат : UTF-8
Идентификатор кодека : S_TEXT/UTF8
Идентификатор кодека/Информация : UTF-8 Plain Text
Продолжительность : 1 ч. 35 м.
Битрейт : 77 бит/сек
Count of elements : 1724
Размер потока : 54,2 Кбайт (0%)
Язык : English
Default : Да
Forced : Нет

Текст #2
Идентификатор : 5
Формат : UTF-8
Идентификатор кодека : S_TEXT/UTF8
Идентификатор кодека/Информация : UTF-8 Plain Text
Продолжительность : 1 ч. 35 м.
Битрейт : 78 бит/сек
Count of elements : 1170
Размер потока : 55,5 Кбайт (0%)
Заголовок : SDH
Язык : Spanish
Default : Нет
Forced : Нет

Меню
00:00:00.000 : en:00:00:00.000
00:11:36.833 : en:00:11:36.833
00:24:04.917 : en:00:24:04.917
00:35:50.917 : en:00:35:50.917
00:46:37.792 : en:00:46:37.792
00:59:32.750 : en:00:59:32.750
01:11:27.000 : en:01:11:27.000
01:25:10.250 : en:01:25:10.250


_________________
Проголосуй за трекер Открытый торрент трекер - RUS-MEDIA.ORG

Проголосуй Открытый торрент трекер - RUS-MEDIA.ORG


Вернуться к началу
 Профиль Отправить личное сообщение  
 
   Похожие торренты   Автор   Торрент   Размер 
В этой теме нет новых непрочитанных сообщений. Без истерики! / Hysteria [драма, мелодрама, комедия, 2011] HDRip-AVC, Dub

salma3

18 | 8

742.5 МБ

В этой теме нет новых непрочитанных сообщений. Письма к М. / Listy do M. [Комедия, драма, мелодрама, 2011] HDRip, Avo

salma3

32 | 6

1.46 ГБ

В этой теме нет новых непрочитанных сообщений. Письма к М. / Listy do M. [Комедия, драма, мелодрама, 2011] HDRip-AVC, Avo

salma3

23 | 2

2.05 ГБ

В этой теме нет новых непрочитанных сообщений. Мужские надежды / Muzi v nadeji [драма, мелодрама, комедия, 2011] HDRip, Avo

salma3

73 | 16

1.45 ГБ

В этой теме нет новых непрочитанных сообщений. Помощник / Всегда готов! / Ready [боевик, комедия, мелодрама, 2011] HDRip, Mvo [SDI Media]

salma3

31 | 6

1.46 ГБ

В этой теме нет новых непрочитанных сообщений. Ки и Ка / Он и она / Ki & Ka [Мелодрама, комедия, 2016] HDRip, Mvo

salma3

331 | 31

1.45 ГБ

В этой теме нет новых непрочитанных сообщений. Это всё она / She's All That [Мелодрама, комедия, 1999] HDRip, Dvo

salma3

24 | 5

745.08 МБ


Начать новую тему Ответить на тему  [ 1 сообщение ] 




Для Мосгорсуда, Роскомнадзора и рекламодателей:: mosgorsud-torrent[собачка]yandex.ru
cron