Торрент файл
скачать торрент магнет ссылка Добавлен: 17 дек 2016, 13:39
Размер: 2.44 ГБ
Сидеров: 114
Личеров: 24
Статус: (salma3)
Автор

СообщениеДобавлено: 17 дек 2016, 13:39 

Не в сети
Супермодератор
Аватара пользователя
Дата регистрации:
15 фев 2012, 16:44
Возраст: 28
Спасибо: 6468 / 2129
Сообщения: 40780
Год выхода: 1994
Страна: США
Студия: Majestic Films International, Newcomm, RCS
Продолжительность: 01:42:22
Жанр: боевик, драма, мелодрама, приключения, история
Режиссер: Кевин Рейнольдс
В ролях: Джейсон Скотт Ли, Эсай Моралес, Сандрин Холт, Эру Потака Дьюс, Эмилио Туки Хито, Гордон Хэтфилд, Френкса Рубен, Хори Ахипене, Чифи Элкингтон, Руиана Рева, ...
Перевод:
- Профессиональный (многоголосный, закадровый) Марафон
- Профессиональный (двухголосый, закадровый) Селена Интернейшнл
- Авторский (одноголосый, закадровый) Гаврилов Андрей Юрьевич
- Авторский (одноголосый, закадровый) Кашкин Александр
- Субтитры
О фильме: Красиво снятый приключенческий фильм переносит нас на остров Пасхи. Тогда это был райский уголок земли, на котором начался острейший конфликт между двумя кланами островитян. Норо — парень из правящего клана длинноухих полюбил девушку из клана короткоухих — Раману, которую любил другой парень, их общий друг детства и тоже короткоухий Маке. Раз в год племена устраивают соревнования: кто доставит с соседнего острова целое птичье яйцо, тому и достанется девушка и он станет человеком-птицей, представителем местного бога…



Кодек: x264
Качество: DVDRip-AVC
Видео: 768x344, 2000 kbps, 25 fps
Аудио #1: AC-3, 6 ch, 384 kbps (Rus) - MVO Марафон
Аудио #2: AC-3, 2 ch, 192 kbps (Rus) - DVO Селена Интернейшнл
Аудио #3: AC-3, 2 ch, 192 kbps (Rus) - AVO Гаврилов Андрей Юрьевич
Аудио #4: AC-3, 5 ch, 448 kbps (Rus) - AVO Кашкин Александр (Первомайский)
Аудио #5: AC-3, 2 ch, 192 kbps (Eng)
Субтитры: Русские, Английские

x264 [info]: frame I:1303 Avg QP:17.23 size: 41491
x264 [info]: frame P:38982 Avg QP:19.82 size: 18245
x264 [info]: frame B:113270 Avg QP:22.09 size: 6799
x264 [info]: consecutive B-frames: 2.3% 4.2% 7.9% 53.4% 17.0% 11.9% 2.1% 0.7% 0.2% 0.1% 0.1% 0.0% 0.1%
Общее
Уникальный идентификатор : 234627288197123093601271233470078460940 (0xB083926F4EC80A75A2A0D4BE281D240C)
Полное имя : Рапа Нуи Потерянный рай (Rapa Nui) 1994 DVDRip.mkv
Формат : Matroska
Версия формата : Version 2
Размер файла : 2,44 Гбайт
Продолжительность : 1 ч. 42 м.
Общий поток : 3411 Кбит/сек
Дата кодирования : UTC 2016-12-11 23:05:59
Программа кодирования : mkvmerge v4.0.0 ('The Stars were mine') сборка от Jun 6 2010 16:18:42
Библиотека кодирования : libebml v1.0.0 + libmatroska v1.0.0
Видео
Идентификатор : 1
Формат : AVC
Формат/Информация : Advanced Video Codec
Профиль формата : High@L4.1
Параметр CABAC формата : Да
Параметр ReFrames формата : 12 кадров
Идентификатор кодека : V_MPEG4/ISO/AVC
Продолжительность : 1 ч. 42 м.
Битрейт : 2000 Кбит/сек
Ширина : 768 пикселей
Высота : 344 пикселя
Соотношение сторон : 2,25:1
Режим частоты кадров : Постоянный
Частота кадров : 25,000 кадров/сек
Цветовое пространство : YUV
Субдискретизация насыщенности : 4:2:0
Битовая глубина : 8 бит
Тип развёртки : Прогрессивная
Бит/(Пиксели*Кадры) : 0.303
Размер потока : 1,38 Гбайт (57%)
Библиотека кодирования : x264 core 146 r2538 121396c
Настройки программы : cabac=1 / ref=12 / deblock=1:-3:-3 / analyse=0x3:0x133 / me=umh / subme=11 / psy=1 / psy_rd=1.00:0.00 / mixed_ref=1 / me_range=32 / chroma_me=1 / trellis=2 / 8x8dct=1 / cqm=0 / deadzone=21,11 / fast_pskip=0 / chroma_qp_offset=-2 / threads=12 / lookahead_threads=2 / sliced_threads=0 / nr=0 / decimate=0 / interlaced=0 / bluray_compat=0 / constrained_intra=0 / bframes=12 / b_pyramid=2 / b_adapt=2 / b_bias=0 / direct=3 / weightb=1 / open_gop=0 / weightp=2 / keyint=250 / keyint_min=25 / scenecut=40 / intra_refresh=0 / rc=2pass / mbtree=0 / bitrate=2000 / ratetol=1.0 / qcomp=0.60 / qpmin=0 / qpmax=69 / qpstep=4 / cplxblur=20.0 / qblur=0.5 / ip_ratio=1.40 / pb_ratio=1.30 / aq=1:0.80
Язык : English
Default : Нет
Forced : Нет
Аудио #1
Идентификатор : 2
Формат : AC-3
Формат/Информация : Audio Coding 3
Расширение режима : CM (complete main)
Параметр Endianness формата : Big
Идентификатор кодека : A_AC3
Продолжительность : 1 ч. 42 м.
Вид битрейта : Постоянный
Битрейт : 384 Кбит/сек
Каналы : 6 каналов
Расположение каналов : Front: L C R, Side: L R, LFE
Частота : 48,0 КГц
Частота кадров : 31,250 кадров/сек (1536 spf)
Метод сжатия : С потерями
Размер потока : 281 Мбайт (11%)
Заголовок : MVO Марафон по заказу Триумф-Видео
Язык : Russian
Default : Нет
Forced : Нет
Аудио #2
Идентификатор : 3
Формат : AC-3
Формат/Информация : Audio Coding 3
Расширение режима : CM (complete main)
Параметр Endianness формата : Big
Идентификатор кодека : A_AC3
Продолжительность : 1 ч. 42 м.
Вид битрейта : Постоянный
Битрейт : 192 Кбит/сек
Каналы : 2 канала
Расположение каналов : Front: L R
Частота : 48,0 КГц
Частота кадров : 31,250 кадров/сек (1536 spf)
Метод сжатия : С потерями
Размер потока : 141 Мбайт (6%)
Заголовок : DVO Селена Интернейшнл (Андрей Ярославцев и Анна Каменкова)
Язык : Russian
Default : Нет
Forced : Нет
Аудио #3
Идентификатор : 4
Формат : AC-3
Формат/Информация : Audio Coding 3
Расширение режима : CM (complete main)
Параметр Endianness формата : Big
Идентификатор кодека : A_AC3
Продолжительность : 1 ч. 42 м.
Вид битрейта : Постоянный
Битрейт : 192 Кбит/сек
Каналы : 2 канала
Расположение каналов : Front: L R
Частота : 48,0 КГц
Частота кадров : 31,250 кадров/сек (1536 spf)
Метод сжатия : С потерями
Размер потока : 141 Мбайт (6%)
Заголовок : AVO Гаврилов Андрей Юрьевич
Язык : Russian
Default : Нет
Forced : Нет
Аудио #4
Идентификатор : 5
Формат : AC-3
Формат/Информация : Audio Coding 3
Расширение режима : CM (complete main)
Параметр Endianness формата : Big
Идентификатор кодека : A_AC3
Продолжительность : 1 ч. 42 м.
Вид битрейта : Постоянный
Битрейт : 448 Кбит/сек
Каналы : 5 каналов
Расположение каналов : Front: L C R, Side: L R
Частота : 48,0 КГц
Частота кадров : 31,250 кадров/сек (1536 spf)
Метод сжатия : С потерями
Размер потока : 328 Мбайт (13%)
Заголовок : AVO Кашкин Александр (Первомайский)
Язык : Russian
Default : Нет
Forced : Нет
Аудио #5
Идентификатор : 6
Формат : AC-3
Формат/Информация : Audio Coding 3
Расширение режима : CM (complete main)
Параметр Endianness формата : Big
Идентификатор кодека : A_AC3
Продолжительность : 1 ч. 42 м.
Вид битрейта : Постоянный
Битрейт : 192 Кбит/сек
Каналы : 2 канала
Расположение каналов : Front: L R
Частота : 48,0 КГц
Частота кадров : 31,250 кадров/сек (1536 spf)
Метод сжатия : С потерями
Размер потока : 141 Мбайт (6%)
Язык : English
Default : Нет
Forced : Нет
Текст #1
Идентификатор : 7
Формат : UTF-8
Идентификатор кодека : S_TEXT/UTF8
Идентификатор кодека/Информация : UTF-8 Plain Text
Язык : Russian
Default : Нет
Forced : Нет
Текст #2
Идентификатор : 8
Формат : UTF-8
Идентификатор кодека : S_TEXT/UTF8
Идентификатор кодека/Информация : UTF-8 Plain Text
Язык : English
Default : Нет
Forced : Нет



_________________
Проголосуй за трекер Открытый торрент трекер - RUS-MEDIA.ORG

Проголосуй Открытый торрент трекер - RUS-MEDIA.ORG



реклама партнёра


Вернуться к началу
 Профиль Отправить личное сообщение  
 
   Похожие торренты   Автор   Торрент   Размер 
В этой теме нет новых непрочитанных сообщений. Потерянный Легион / The Lost Legion [боевик, приключения, история, 2014] HDRip, Mvo

salma3

840 | 67

1.37 ГБ

В этой теме нет новых непрочитанных сообщений. Потерянный Легион / The Lost Legion [боевик, приключения, история, 2014] BDRip 720p, Mvo

salma3

265 | 68

4.26 ГБ

В этой теме нет новых непрочитанных сообщений. Мохенджо Даро / Mohenjo Daro [боевик, драма, мелодрама, приключения, история, 2016] DVDRip, Mvo

salma3

37 | 10

1.46 ГБ

В этой теме нет новых непрочитанных сообщений. Джейн и потерянный город / Jane and the Lost City [Комедия, приключения, 1987] DVDRip, Dvo

salma3

63 | 0

1.46 ГБ

В этой теме нет новых непрочитанных сообщений. Оленёнок / Однолеток / The Yearling [Мелодрама, приключения, семейный, 1994] DVDRip, Mvo

salma3

43 | 5

1.45 ГБ

В этой теме нет новых непрочитанных сообщений. Потерянный рейс / United 93 (Пол Гринграсс) [2006, боевик, триллер, драма, BDRip 720p] Dub

Nickolas3435

124 | 9

5.39 ГБ

В этой теме нет новых непрочитанных сообщений. Потерянный ангел / The Lost Angel [Триллер, драма, 2005] DVDRip-AVC, Dvo+Sub

salma3

62 | 2

1.99 ГБ


Начать новую тему Ответить на тему  [ 1 сообщение ] 




Для Мосгорсуда, Роскомнадзора и рекламодателей:: mosgorsud-torrent[собачка]yandex.ru