Торрент файл
скачать торрент магнет ссылка Добавлен: 15 дек 2016, 12:01
Размер: 746.94 МБ
Сидеров: 16
Личеров: 8
Статус: (salma3)
Автор

СообщениеДобавлено: 15 дек 2016, 12:01 

Не в сети
Супермодератор
Аватара пользователя
Дата регистрации:
15 фев 2012, 16:44
Возраст: 28
Спасибо: 7285 / 2147
Сообщения: 70380
Год выхода: 1974
Жанр: Комедия
Режиссер: Джек Донохью

В ролях: Люсиль Болл, Арт Карни, Нанетт Фабрэй, Питер Маршалл, Дон Портер, Патриция Блэр, Дория Кук-Нельсон, Конни Гаррисон, Сид Гулд, Флоренс Лэйк, Луиза Мориц, Родс Ризон, Арнольд Шварценеггер

О фильме:
В центре сюжета - пожилая семейная пара: Норма и Малькольм, которая только что выдала замуж единственную дочь. Дочь, как семейная скрепа вылетела из дома, словно пробка из под шампанского, поскольку не выносила дрязг между матерью и отцом, предпочтя им мастера по педикюру в мужья. Малькольм - старый дентист и скряга с кучей болячек в организме, решается уйти от своей жены, с которой худо-бедно прожил 25 лет. Парочка расстается, а их старые друзья и подруги помогают им обрести себя в новой холостяцкой жизни. Каждый берется за себя, садясь на диету, занимаясь спортом и конечно, пытаясь наладить новые отношения с противоположным полом. В эпизодической роли снялся молодой Арнольд Шварценеггер. Он играет красавца итальянца, который пришел массажировать Норму, пытающуюся начать новую жизнь после расставания с мужем.

Страна: США
Продолжительность: 00:52:05
Перевод: Авторский [одноголосый, закадровый] [Антон, Карповский]

Файл
Кодек: AVC/H.264
Качество: DVDRip-AVC
Видео: 640x480, ~1612 Кбит/сек, 23,976 кадра/сек
Звук: Русский (AC3, 2 ch, 192 Кбит/сек), английский (AC3, 2 ch, 192 Кбит/сек)
Субтитры: Русские, английские (Вшитые отключаемые)
Семпл

Формат : Matroska
Версия формата : Version 2
Размер файла : 747 Мбайт
Продолжительность : 52 м.
Общий поток : 2005 Кбит/сек
Дата кодирования : UTC 2016-12-14 08:03:02
Программа кодирования : mkvmerge v5.8.0 ('No Sleep / Pillow') built on Sep 2 2012 15:37:04
Библиотека кодирования : libebml v1.2.3 + libmatroska v1.3.0
Attachements : cover.jpg
Видео
Идентификатор : 1
Формат : AVC
Формат/Информация : Advanced Video Codec
Профиль формата : High@L4.1
Параметр CABAC формата : Да
Параметр ReFrames формата : 12 кадров
Идентификатор кодека : V_MPEG4/ISO/AVC
Продолжительность : 52 м.
Битрейт : 1612 Кбит/сек
Ширина : 640 пикселей
Высота : 480 пикселей
Соотношение сторон : 4:3
Режим частоты кадров : Постоянный
Частота кадров : 23,976 кадра/сек
Цветовое пространство : YUV
Субдискретизация насыщенности : 4:2:0
Битовая глубина : 8 бит
Тип развёртки : Прогрессивная
Бит/(Пиксели*Кадры) : 0.219
Размер потока : 589 Мбайт (79%)
Заголовок : zzZGVvv
Библиотека кодирования : x264 core 125 r2208 d9d2288
Настройки программы : cabac=1 / ref=12 / deblock=1:-2:-2 / analyse=0x3:0x113 / me=umh / subme=9 / psy=1 / psy_rd=1.00:0.00 / mixed_ref=1 / me_range=32 / chroma_me=1 / trellis=0 / 8x8dct=1 / cqm=0 / deadzone=21,11 / fast_pskip=0 / chroma_qp_offset=-2 / threads=12 / lookahead_threads=2 / sliced_threads=0 / nr=0 / decimate=0 / interlaced=0 / bluray_compat=0 / constrained_intra=0 / bframes=7 / b_pyramid=2 / b_adapt=2 / b_bias=0 / direct=3 / weightb=1 / open_gop=0 / weightp=2 / keyint=240 / keyint_min=23 / scenecut=40 / intra_refresh=0 / rc=abr / mbtree=0 / bitrate=1612 / ratetol=1.0 / qcomp=0.10 / qpmin=0 / qpmax=69 / qpstep=4 / ip_ratio=1.40 / pb_ratio=1.30 / aq=1:1.00
Язык : English
Default : Да
Forced : Да
Аудио #1
Идентификатор : 2
Формат : AC-3
Формат/Информация : Audio Coding 3
Расширение режима : CM (complete main)
Параметр Endianness формата : Big
Идентификатор кодека : A_AC3
Продолжительность : 52 м.
Вид битрейта : Постоянный
Битрейт : 192 Кбит/сек
Каналы : 1 канал
Расположение каналов : Front: C
Частота : 48,0 КГц
Метод сжатия : С потерями
Размер потока : 71,5 Мбайт (10%)
Заголовок : AVO
Язык : Russian
Default : Да
Forced : Да
Аудио #2
Идентификатор : 3
Формат : AC-3
Формат/Информация : Audio Coding 3
Расширение режима : CM (complete main)
Параметр Endianness формата : Big
Идентификатор кодека : A_AC3
Продолжительность : 52 м.
Вид битрейта : Постоянный
Битрейт : 192 Кбит/сек
Каналы : 1 канал
Расположение каналов : Front: C
Частота : 48,0 КГц
Метод сжатия : С потерями
Размер потока : 71,5 Мбайт (10%)
Язык : English
Default : Нет
Forced : Нет
Текст #1
Идентификатор : 4
Формат : UTF-8
Идентификатор кодека : S_TEXT/UTF8
Идентификатор кодека/Информация : UTF-8 Plain Text
Язык : Russian
Default : Нет
Forced : Нет
Текст #2
Идентификатор : 5
Формат : UTF-8
Идентификатор кодека : S_TEXT/UTF8
Идентификатор кодека/Информация : UTF-8 Plain Text
Язык : English
Default : Нет
Forced : Нет
Меню
00:00:00.000 : :Chapter 01
00:00:43.601 : :Chapter 02
00:10:09.601 : :Chapter 03
00:19:34.302 : :Chapter 04
00:33:31.736 : :Chapter 05
00:43:31.769 : :Chapter 06
00:51:06.003 : :Chapter 07
00:52:01.503 : :Chapter 08


_________________
Проголосуй за трекер Открытый торрент трекер - RUS-MEDIA.ORG

Проголосуй Открытый торрент трекер - RUS-MEDIA.ORG


Вернуться к началу
 Профиль Отправить личное сообщение  
 
   Похожие торренты   Автор   Торрент   Размер 
В этой теме нет новых непрочитанных сообщений. Slutty Wife Happy Life 3 / Шлюшка Жена- Счастливая Жизнь 3 (Brazzers) [2018 г., Affairs & Love Triangles, Big Boobs, Gonzo, Wives, DVDRip]

salma3

38 | 13

1.93 ГБ

В этой теме нет новых непрочитанных сообщений. Счастливая долина / Happy Valley [S02] [драма, криминал, 2016] HDRip, Mvo [SDI Media]

salma3

14 | 3

4.37 ГБ

В этой теме нет новых непрочитанных сообщений. Счастливая долина / Happy Valley [S02] [Драма, криминал, 2016] HDRip, Mvo [SDI Media] [КПК]

salma3

1 | 27

1.3 ГБ

В этой теме нет новых непрочитанных сообщений. Slutty Wife Happy Life 2 / Шлюха жена - счастливая жизнь 2 (Brazzers) [2017 г., Big Tits, Threesome, DVDRip] Adriana Chechik, Ava Addams, August Ames, Bridgette B., Kendra Lust, Rachel Starr, Riley Reid

salma3

9 | 3

2.24 ГБ

В этой теме нет новых непрочитанных сообщений. Техасская резня бензопилой / The Texas Chain Saw Massacre [ужасы, триллер, 1974] BDRemux 1080р, Dvo+Sub [40th Anniversary Restoration]

salma3

0 | 0

22.12 ГБ

В этой теме нет новых непрочитанных сообщений. [RealWifeStories.com / Brazzers.com] Nicole Aniston - Happy Anniversary, Darling (27.05.2018) [Creampie, Big Tits, Black Stockings, Blonde, Boyshorts, Bubble Butt, Garter Belt, High Heels, Innie Pussy, Thong, Trimmed Pussy, Wife, Work Fanta

salma3

0 | 0

341.13 МБ

В этой теме нет новых непрочитанных сообщений. [RealWifeStories.com / Brazzers.com] Nicole Aniston (Happy Anniversary, Darling / 27.05.2018) [2018 г., Big Tits,Big Tits Worship,Blonde,Bubble Butt,Caucasian,Creampie,Feet,Innie Pussy,Tattoo,Trimmed Pussy,Wife,Work Fantasies, 1080p]

salma3

0 | 0

1.27 ГБ


Начать новую тему Ответить на тему  [ 1 сообщение ] 




Для Мосгорсуда, Роскомнадзора и рекламодателей:: mosgorsud-torrent[собачка]yandex.ru
cron