Торрент файл
скачать торрент магнет ссылка Добавлен: 14 дек 2016, 13:35
Размер: 745.1 МБ
Сидеров: 37
Личеров: 8
Статус: (salma3)
Автор

СообщениеДобавлено: 14 дек 2016, 13:35 

Не в сети
Супермодератор
Аватара пользователя
Дата регистрации:
15 фев 2012, 16:44
Возраст: 29
Спасибо: 7319 / 2147
Сообщения: 73191
Год выхода: 1985
Жанр: Комедия, фэнтези
Режиссер: Алан Холлеб

В ролях: Том Нолан, Элизабет Фокс, Ларри Линвилл, Роберта Коллинз, Тони Хадсон.....

О фильме:
Молодой парень Билли Бэтсон едет на свидание со своей девушкой. Он надеется на секс с ней, но у него нет ни одного презерватива. Тогда он едет за презервативами и находит их в придорожной закусочной. Теперь он спешит обратно и на большой скорости врезается своей машиной в большой грузовик и погибает. На небесах его воскрешают, но уже в виде духа, чтобы он смог встретиться со своей любимой и провести с ней ночь. Билли теперь невидим и может увидеть всё, о чём раньше и не мог мечтать. Например наблюдать за голыми девушками в женской раздевалке. И он решает немного пошалить.



Страна: США
Студия: Chroma III Productions
Продолжительность: 01:30:49
Перевод: Авторский (одноголосый, закадровый) - Леонид Володарский

Файл
Кодек: XviD
Качество: DVDRip
Видео: 512x384 (1.33:1), 23.976 fps, XviD build 73 ~1010 kbps avg, 0.21 bit/pixel
Звук: 48 kHz, MPEG Layer 3, 2 ch, ~128.00 kbps avg
Субтитры: Отсутствуют
Семпл
General
Complete name : D:Изготовление рипаSchool Spirit_dvdrip by shkiper.avi
Format : AVI
Format/Info : Audio Video Interleave
File size : 745 MiB
Duration : 1 h 30 min
Overall bit rate : 1 147 kb/s
Writing application : VirtualDubMod 1.5.10.3 | www.virtualdub-fr.org || (build 2550/release)
Writing library : VirtualDubMod build 2550/release
Video
ID : 0
Format : MPEG-4 Visual
Format profile : Advanced Simple@L5
Format settings, BVOP : 1
Format settings, QPel : No
Format settings, GMC : No warppoints
Format settings, Matrix : Custom
Codec ID : XVID
Codec ID/Hint : XviD
Duration : 1 h 30 min
Bit rate : 1 010 kb/s
Width : 512 pixels
Height : 384 pixels
Display aspect ratio : 4:3
Frame rate : 23.976 (24000/1001) FPS
Color space : YUV
Chroma subsampling : 4:2:0
Bit depth : 8 bits
Scan type : Progressive
Compression mode : Lossy
Bits/(Pixel*Frame) : 0.214
Stream size : 656 MiB (88%)
Writing library : XviD 73
Audio
ID : 1
Format : MPEG Audio
Format version : Version 1
Format profile : Layer 3
Codec ID : 55
Codec ID/Hint : MP3
Duration : 1 h 30 min
Bit rate mode : Constant
Bit rate : 128 kb/s
Channel(s) : 2 channels
Sampling rate : 48.0 kHz
Compression mode : Lossy
Stream size : 83.1 MiB (11%)
Alignment : Aligned on interleaves
Interleave, duration : 42 ms (1.00 video frame)
Interleave, preload duratio : 504 ms
Writing library : LAME3.99r
Encoding settings : -m s -V 4 -q 2 -lowpass 17 -b 128

Релиз от:


_________________
Проголосуй за трекер Открытый торрент трекер - RUS-MEDIA.ORG

Проголосуй Открытый торрент трекер - RUS-MEDIA.ORG


Вернуться к началу
 Профиль Отправить личное сообщение  
 
   Похожие торренты   Автор   Торрент   Размер 
В этой теме нет новых непрочитанных сообщений. Дух студента / School Spirit [комедия, фэнтези, 1985] DVD5, Avo

salma3

99 | 33

4.29 ГБ

В этой теме нет новых непрочитанных сообщений. [TeensLikeItBig.com / Brazzers.com] Krystal Orchid - The Scarlett A+ (05.08.2017) [Creampie, Natural Tits, Redhead, School, School Fantasies, School Girl, Sneaky]

salma3

24 | 8

490.05 МБ

В этой теме нет новых непрочитанных сообщений. [TeensLikeItBig.com / Brazzers.com] Krystal Orchid - The Scarlett A+ (05.08.2017) [Creampie, Natural Tits, Redhead, School, School Fantasies, School Girl, Sneaky]

salma3

38 | 13

260.35 МБ

В этой теме нет новых непрочитанных сообщений. [TeensLikeItBig.com / Brazzers.com] Krystal Orchid (The Scarlett A+) [2017 г., Creampie, Natural Tits, Redhead, School, School Fantasies, School Girl, Sneaky, 1080p]

salma3

20 | 6

2.73 ГБ

В этой теме нет новых непрочитанных сообщений. Школа Юрского периода / Jurassic School [фэнтези, драма, комедия, семейный, 2017] HDRip, Mvo

salma3

328 | 105

1.37 ГБ

В этой теме нет новых непрочитанных сообщений. [TeensLikeItBig.com / Brazzers.com] Krystal Orchid (The Scarlett A+ / 10732 / 05.08.17) [2017 г., Creampie, Natural Tits, Redhead, School, School Fantasies, School Girl, Sneaky, Uniform, 720p]

salma3

17 | 6

1.83 ГБ

В этой теме нет новых непрочитанных сообщений. Дом / House [ужасы, фэнтези, комедия, 1985] BDRip, Avo

salma3

42 | 3

1.45 ГБ


Начать новую тему Ответить на тему  [ 1 сообщение ] 




Для Мосгорсуда, Роскомнадзора и рекламодателей:: mosgorsud-torrent[собачка]yandex.ru
cron