Торрент файл
скачать торрент магнет ссылка Добавлен: 12 дек 2016, 21:52
Размер: 2.48 ГБ
Сидеров: 65
Личеров: 11
Статус: (salma3)
Автор

СообщениеДобавлено: 12 дек 2016, 21:52 

Не в сети
Супермодератор
Аватара пользователя
Дата регистрации:
15 фев 2012, 16:44
Возраст: 28
Спасибо: 6487 / 2129
Сообщения: 41182
Год выхода: 1994
Страна: США
Студия: Cinetel Films
Продолжительность: 01:26:50
Жанр: ужасы, фантастика, боевик, триллер
Режиссер: Спиро Разатос

В ролях: Саша Митчел, Кэйтлин Дюлэйни, Ник Кассаветис, Грегори Уэст, Рик Хилл, Джек Найт, Диего Серрано, Берни Пок, Денни Пирс, Лоринг Пикеринг, ...

Перевод:
- Профессиональный (многоголосный, закадровый) ?
- Авторский (одноголосый, закадровый) Сербин Юрий Владимирович
- Авторский (одноголосый, закадровый) Горчаков Василий Овидиеви
ч
О фильме: Безумный ученый переделал боевых киборгов, и они, перестав быть воинами-убийцами, начали бороться за дисциплину в тех школах, которые были рассадником хулиганства и бандитизма. Но во встроенной программе киборгов пункт, связанный с необходимостью убивать, сохранился, и по этой причине пришлось человекоподобных роботов уничтожить. Однако один из них по недосмотру остался. Звали его Джон Болен. Однажды он появился в какой-то провинциальной школе в штате Орегон в качестве нового учителя… Который считал своим священным долгом ликвидировать всякую подростковую шпану еще в зародыше, то есть убивать школьников, скажем, за непослушание…



Кодек: x264
Качество: DVDRip-AVC
Видео: 744x568, 3500 kbps, 25 fps
Аудио #1: AC-3, 2 ch, 192 kbps (Rus) - MVO
Аудио #2: AC-3, 2 ch, 192 kbps (Rus) - AVO Сербин Юрий Владимирович
Аудио #3: AC-3, 2 ch, 384 kbps (Rus) - AVO Горчаков Василий Овидиевич
Аудио #4: AC-3, 2 ch, 128 kbps (Eng)
Субтитры: нет
За исходник спасибо - Гость
x264 [info]: frame I:852 Avg QP:17.78 size: 63878
x264 [info]: frame P:26372 Avg QP:20.40 size: 30028
x264 [info]: frame B:103025 Avg QP:22.31 size: 12012
x264 [info]: consecutive B-frames: 1.6% 2.1% 5.9% 13.9% 10.9% 57.1% 4.0% 1.5% 1.5% 0.6% 0.3% 0.5% 0.1%
Общее
Уникальный идентификатор : 246708732313509158738984171333116443825 (0xB99A5F9E6155703AA9CD966CAE8F3CB1)
Полное имя : C:TorrentКласс 3 1999 Новый учитель (Class of 1999 II The Substitute) 1994 DVDRip.mkv
Формат : Matroska
Версия формата : Version 2
Размер файла : 2,48 Гбайт
Продолжительность : 1 ч. 26 м.
Общий поток : 4096 Кбит/сек
Дата кодирования : UTC 2016-12-10 21:10:04
Программа кодирования : mkvmerge v4.0.0 ('The Stars were mine') сборка от Jun 6 2010 16:18:42
Библиотека кодирования : libebml v1.0.0 + libmatroska v1.0.0
Видео
Идентификатор : 1
Формат : AVC
Формат/Информация : Advanced Video Codec
Профиль формата : High@L4.1
Параметр CABAC формата : Да
Параметр ReFrames формата : 12 кадров
Идентификатор кодека : V_MPEG4/ISO/AVC
Продолжительность : 1 ч. 26 м.
Битрейт : 3200 Кбит/сек
Ширина : 744 пикселя
Высота : 568 пикселей
Соотношение сторон : 4:3
Режим частоты кадров : Постоянный
Частота кадров : 25,000 кадров/сек
Цветовое пространство : YUV
Субдискретизация насыщенности : 4:2:0
Битовая глубина : 8 бит
Тип развёртки : Прогрессивная
Бит/(Пиксели*Кадры) : 0.303
Размер потока : 1,89 Гбайт (76%)
Библиотека кодирования : x264 core 146 r2538 121396c
Настройки программы : cabac=1 / ref=12 / deblock=1:-3:-3 / analyse=0x3:0x133 / me=umh / subme=11 / psy=1 / psy_rd=1.00:0.00 / mixed_ref=1 / me_range=32 / chroma_me=1 / trellis=2 / 8x8dct=1 / cqm=0 / deadzone=21,11 / fast_pskip=0 / chroma_qp_offset=-2 / threads=12 / lookahead_threads=2 / sliced_threads=0 / nr=0 / decimate=0 / interlaced=0 / bluray_compat=0 / constrained_intra=0 / bframes=12 / b_pyramid=2 / b_adapt=2 / b_bias=0 / direct=3 / weightb=1 / open_gop=0 / weightp=2 / keyint=250 / keyint_min=25 / scenecut=40 / intra_refresh=0 / rc=2pass / mbtree=0 / bitrate=3200 / ratetol=1.0 / qcomp=0.60 / qpmin=0 / qpmax=69 / qpstep=4 / cplxblur=20.0 / qblur=0.5 / ip_ratio=1.40 / pb_ratio=1.30 / aq=1:0.80
Язык : English
Default : Нет
Forced : Нет
Аудио #1
Идентификатор : 2
Формат : AC-3
Формат/Информация : Audio Coding 3
Расширение режима : CM (complete main)
Параметр Endianness формата : Big
Идентификатор кодека : A_AC3
Продолжительность : 1 ч. 26 м.
Вид битрейта : Постоянный
Битрейт : 192 Кбит/сек
Каналы : 2 канала
Расположение каналов : Front: L R
Частота : 48,0 КГц
Частота кадров : 31,250 кадров/сек (1536 spf)
Метод сжатия : С потерями
Размер потока : 119 Мбайт (5%)
Заголовок : MVO
Язык : Russian
Default : Нет
Forced : Нет
Аудио #2
Идентификатор : 3
Формат : AC-3
Формат/Информация : Audio Coding 3
Расширение режима : CM (complete main)
Параметр Endianness формата : Big
Идентификатор кодека : A_AC3
Продолжительность : 1 ч. 26 м.
Вид битрейта : Постоянный
Битрейт : 192 Кбит/сек
Каналы : 2 канала
Расположение каналов : Front: L R
Частота : 48,0 КГц
Частота кадров : 31,250 кадров/сек (1536 spf)
Метод сжатия : С потерями
Размер потока : 119 Мбайт (5%)
Заголовок : AVO Сербин Юрий Владимирович
Язык : Russian
Default : Нет
Forced : Нет
Аудио #3
Идентификатор : 4
Формат : AC-3
Формат/Информация : Audio Coding 3
Расширение режима : CM (complete main)
Параметр Endianness формата : Big
Идентификатор кодека : A_AC3
Продолжительность : 1 ч. 26 м.
Вид битрейта : Постоянный
Битрейт : 384 Кбит/сек
Каналы : 2 канала
Расположение каналов : Front: L R
Частота : 48,0 КГц
Частота кадров : 31,250 кадров/сек (1536 spf)
Метод сжатия : С потерями
Задержка видео : 40 мс.
Размер потока : 238 Мбайт (9%)
Заголовок : AVO Горчаков Василий Овидиевич
Язык : Russian
Default : Нет
Forced : Нет
Аудио #4
Идентификатор : 5
Формат : AC-3
Формат/Информация : Audio Coding 3
Расширение режима : CM (complete main)
Параметр Endianness формата : Big
Идентификатор кодека : A_AC3
Продолжительность : 1 ч. 26 м.
Вид битрейта : Постоянный
Битрейт : 128 Кбит/сек
Каналы : 2 канала
Расположение каналов : Front: L R
Частота : 48,0 КГц
Частота кадров : 31,250 кадров/сек (1536 spf)
Метод сжатия : С потерями
Размер потока : 79,5 Мбайт (3%)
Язык : English
Default : Нет
Forced : Нет



_________________
Проголосуй за трекер Открытый торрент трекер - RUS-MEDIA.ORG

Проголосуй Открытый торрент трекер - RUS-MEDIA.ORG



реклама партнёра


Вернуться к началу
 Профиль Отправить личное сообщение  
 
   Похожие торренты   Автор   Торрент   Размер 
В этой теме нет новых непрочитанных сообщений. Класс 1999 / Class of 1999 [ужасы, фантастика, боевик, 1990] DVDRip-AVC, Dvo

salma3

128 | 38

2.66 ГБ

В этой теме нет новых непрочитанных сообщений. Класс 1999 / Class of 1999 [ужасы, фантастика, боевик, 1990] HDRip, Dvo

salma3

94 | 27

1.37 ГБ

В этой теме нет новых непрочитанных сообщений. Класс 1999 / Class of 1999 [ужасы, фантастика, боевик, 1990] BDRip 720p, Dvo

salma3

34 | 11

6.22 ГБ

В этой теме нет новых непрочитанных сообщений. Класс 1999 / Class of 1999 [ужасы, фантастика, боевик, 1990] BDRip 1080p, Dvo

salma3

40 | 17

10.77 ГБ

В этой теме нет новых непрочитанных сообщений. Замена / Учитель на замену / The Substitute [боевик, триллер, драма, криминал, 1996] HDRip, Mvo

salma3

63 | 5

1.45 ГБ

В этой теме нет новых непрочитанных сообщений. Сокращая класс / Cutting Class [ужасы, триллер, комедия, 1988] DVDRip, Avo [Гаврилов]

salma3

52 | 6

1.45 ГБ

В этой теме нет новых непрочитанных сообщений. Люди Икс: Первый класс / X-Men: First Class [фантастика, боевик, приключения, 2011] BDRip, Avo [Гаврилов]

salma3

10 | 7

2.18 ГБ


СообщениеДобавлено: 14 дек 2016, 05:16 

Не в сети
Супермодератор
Аватара пользователя
Дата регистрации:
15 фев 2012, 16:44
Возраст: 28
Спасибо: 6487 / 2129
Сообщения: 41182
Фильм неплох.. Но до первой части не дотягивает.

_________________
Проголосуй за трекер Открытый торрент трекер - RUS-MEDIA.ORG

Проголосуй Открытый торрент трекер - RUS-MEDIA.ORG


Вернуться к началу
 Профиль Отправить личное сообщение  
 
Начать новую тему Ответить на тему  [ Сообщений: 2 ] 




Для Мосгорсуда, Роскомнадзора и рекламодателей:: mosgorsud-torrent[собачка]yandex.ru