Торрент файл
скачать торрент магнет ссылка Добавлен: 12 дек 2016, 16:42
Размер: 1.46 ГБ
Сидеров: 110
Личеров: 14
Статус: (salma3)
Автор

СообщениеДобавлено: 12 дек 2016, 16:42 

Не в сети
Супермодератор
Аватара пользователя
Дата регистрации:
15 фев 2012, 16:44
Возраст: 28
Спасибо: 6471 / 2129
Сообщения: 40974
Режиссер: Сирио Х. Сантьяго
Год выпуска: 1987
Жанр: фантастика, боевик, приключения

В ролях: Ричард Нортон, Корина Уол, Роберт Патрик, Уильям Стайс, Фредерик Бэйли, Рекс Каттер, Уоррен МакЛин, Питер Шилтон, Дон Гордон Белл, Рамон Д’Сальва, Вик Диас, Генри Стрцалковский, Билл Кипп, Стив Кук

Описание:
После ядерной войны Аляска превратилась в пустыню. не хватает всего, особенно воды. Всем заправляет жестокий тиран. Естественно, есть недовольные. Но силы не равны! И вот тогда главный герой изготовляет чудо-пулемет УРАВНИТЕЛЬ 2000…



Страна: США, Филиппины
Продолжительность: 01:27:48
Перевод: Авторский (одноголосый закадровый) [Сергей, Кузнецов]

[b]Формат:
HDRip, AVI, XviD, AC3
Видео: 704x400 (1.76:1), 23.976 fps, XviD build 73 ~2183 kbps avg, 0.323 bit/pixel
Аудио: 48 kHz, AC3 Dolby Digital, 2/0 (L,R) ch, ~192 kbps

General
Format : AVI
Format/Info : Audio Video Interleave
File size : 1.46 GiB
Duration : 1h 27mn
Overall bit rate : 2 384 Kbps
Writing application : VirtualDubMod 1.5.10.3 (build 2550/release)
Writing library : VirtualDubMod build 2550/release

Video
ID : 0
Format : MPEG-4 Visual
Format profile : Advanced Simple@L5
Format settings, BVOP : 1
Format settings, QPel : No
Format settings, GMC : No warppoints
Format settings, Matrix : Custom
Codec ID : XVID
Codec ID/Hint : XviD
Duration : 1h 27mn
Bit rate : 2 183 Kbps
Width : 704 pixels
Height : 400 pixels
Display aspect ratio : 16:9
Frame rate : 23.976 fps
Color space : YUV
Chroma subsampling : 4:2:0
Bit depth : 8 bits
Scan type : Progressive
Compression mode : Lossy
Bits/(Pixel*Frame) : 0.323
Stream size : 1.34 GiB (92%)
Writing library : XviD 73

Audio
ID : 1
Format : AC-3
Format/Info : Audio Coding 3
Mode extension : CM (complete main)
Format settings, Endianness : Big
Codec ID : 2000
Duration : 1h 27mn
Bit rate mode : Constant
Bit rate : 192 Kbps
Channel(s) : 2 channels
Channel positions : Front: L R
Sampling rate : 48.0 KHz
Bit depth : 16 bits
Compression mode : Lossy
Stream size : 121 MiB (8%)
Alignment : Split accross interleaves
Interleave, duration : 42 ms (1.00 video frame)
Interleave, preload duration : 500 ms




_________________
Проголосуй за трекер Открытый торрент трекер - RUS-MEDIA.ORG

Проголосуй Открытый торрент трекер - RUS-MEDIA.ORG



реклама партнёра


Вернуться к началу
 Профиль Отправить личное сообщение  
 
   Похожие торренты   Автор   Торрент   Размер 
В этой теме нет новых непрочитанных сообщений. Уравнитель 2000 / Equalizer 2000 [фантастика, боевик, приключения, 1987] BDRip 1080p, Avo

salma3

136 | 46

7.79 ГБ

В этой теме нет новых непрочитанных сообщений. Черри 2000 / Cherry 2000 [фантастика, боевик, приключения, 1987] BDRip 720p, Mvo+2Dvo+Avo+Sub

salma3

62 | 8

4.22 ГБ

В этой теме нет новых непрочитанных сообщений. Великий уравнитель / The Equalizer [Боевик, Триллер, Криминал, 2014] HDRip, Dub [iTunes]

Dracon

153 | 7

1.46 ГБ

В этой теме нет новых непрочитанных сообщений. Великий уравнитель / The Equalizer [Боевик, Триллер, Криминал, 2014] HDRip, Dub [iTunes]

Dracon

18 | 4

2.05 ГБ

В этой теме нет новых непрочитанных сообщений. Великий уравнитель / The Equalizer [Боевик, Триллер, Криминал, 2014] HDRip [Д.Есарев]

Dracon

8 | 3

1.37 ГБ

В этой теме нет новых непрочитанных сообщений. Великий уравнитель / The Equalizer [Боевик, Триллер, Криминал, 2014] Blu-ray CEE 1080p, Dub+Sub [Лицензия]

Dracon

149 | 60

40.28 ГБ

В этой теме нет новых непрочитанных сообщений. Великий уравнитель / The Equalizer [Боевик, Триллер, Криминал, 2014] BDRip 720p, [Д.Есарев]

Dracon

6 | 3

9.34 ГБ


Начать новую тему Ответить на тему  [ 1 сообщение ] 




Для Мосгорсуда, Роскомнадзора и рекламодателей:: mosgorsud-torrent[собачка]yandex.ru