Торрент файл
скачать торрент магнет ссылка Добавлен: 11 дек 2016, 14:12
Размер: 2.18 ГБ
Сидеров: 162
Личеров: 19
Статус: (salma3)
Автор

СообщениеДобавлено: 11 дек 2016, 14:12 

Не в сети
Супермодератор
Аватара пользователя
Дата регистрации:
15 фев 2012, 16:44
Возраст: 29
Спасибо: 7328 / 2147
Сообщения: 73609
Год выхода: 1970
Жанр: Фэнтези, Приключения, Семейный
Режиссер: Артур Аллан Сейдельман

В ролях: Арнольд Шварценеггер, Дебора Лумис, Джеймс Карен, Эрнест Грейвз, Танни МакДональд, Харольд Бурстейн, Мервин Голдсмит, Джордж Бартеньефф, Тайна Элг и др.

О фильме:
После долгой жизни на Олимпе Геркулеc, незаконнорожденный сын Зевса, вопреки желанию отца, отправляется на Землю и оказывается в Нью-Йорке. Но для человека, который жил в Греции, нелегко привыкнуть к современной жизни

Страна: США
Студия: Filmpartners
Продолжительность: 01:32:01
Перевод: Многоголосый закадровый, Одноголосый закадровый (Ю.Сербин)

Файл
Кодек: AVC/H.264
Качество: BDRip-AVC
Видео: 1024x576, ~2 811 Кбит/сек, 23,976 кадра/сек
Звук:
Аудио #1: AC3, 2 ch, 192 Kbps - Многоголосый закадровый
Аудио #2: AC3, 2 ch, 192 Kbps - Одноголосый закадровый
Аудио #3: AC3, 2 ch, 192 Kbps - Оригинал
Субтитры: Русский, английский (Вшитые)
Семпл
Формат : Matroska
Версия формата : Version 2
Размер файла : 2,18 Гбайт
Продолжительность : 1 ч. 32 м.
Общий поток : 3390 Кбит/сек
Дата кодирования : UTC 2016-12-09 08:19:01
Программа кодирования : mkvmerge v5.8.0 ('No Sleep / Pillow') built on Sep 2 2012 15:37:04
Библиотека кодирования : libebml v1.2.3 + libmatroska v1.3.0
Attachements : cover.jpg
Видео
Идентификатор : 1
Формат : AVC
Формат/Информация : Advanced Video Codec
Профиль формата : Main@L4.1
Параметр CABAC формата : Да
Параметр ReFrames формата : 9 кадров
Идентификатор кодека : V_MPEG4/ISO/AVC
Продолжительность : 1 ч. 32 м.
Битрейт : 2811 Кбит/сек
Ширина : 1024 пикселя
Высота : 576 пикселей
Соотношение сторон : 16:9
Режим частоты кадров : Постоянный
Частота кадров : 23,976 кадра/сек
Цветовое пространство : YUV
Субдискретизация насыщенности : 4:2:0
Битовая глубина : 8 бит
Тип развёртки : Прогрессивная
Бит/(Пиксели*Кадры) : 0.199
Размер потока : 1,77 Гбайт (81%)
Заголовок : zzZGVvv
Библиотека кодирования : x264 core 125 r2208 d9d2288
Настройки программы : cabac=1 / ref=9 / deblock=1:-2:-2 / analyse=0x1:0 / me=umh / subme=9 / psy=0 / mixed_ref=1 / me_range=16 / chroma_me=0 / trellis=0 / 8x8dct=0 / cqm=0 / deadzone=21,11 / fast_pskip=1 / chroma_qp_offset=0 / threads=12 / lookahead_threads=2 / sliced_threads=0 / nr=0 / decimate=1 / interlaced=0 / bluray_compat=0 / constrained_intra=0 / bframes=7 / b_pyramid=2 / b_adapt=1 / b_bias=0 / direct=3 / weightb=1 / open_gop=0 / weightp=2 / keyint=240 / keyint_min=23 / scenecut=40 / intra_refresh=0 / rc_lookahead=40 / rc=2pass / mbtree=1 / bitrate=2811 / ratetol=1.0 / qcomp=0.10 / qpmin=0 / qpmax=69 / qpstep=4 / cplxblur=20.0 / qblur=0.5 / ip_ratio=1.40 / aq=1:1.00
Язык : English
Default : Да
Forced : Да
Аудио #1
Идентификатор : 2
Формат : AC-3
Формат/Информация : Audio Coding 3
Расширение режима : CM (complete main)
Параметр Endianness формата : Big
Идентификатор кодека : A_AC3
Продолжительность : 1 ч. 32 м.
Вид битрейта : Постоянный
Битрейт : 192 Кбит/сек
Каналы : 2 канала
Расположение каналов : Front: L R
Частота : 48,0 КГц
Метод сжатия : С потерями
Размер потока : 126 Мбайт (6%)
Заголовок : MVO
Язык : Russian
Default : Да
Forced : Да
Аудио #2
Идентификатор : 3
Формат : AC-3
Формат/Информация : Audio Coding 3
Расширение режима : CM (complete main)
Параметр Endianness формата : Big
Идентификатор кодека : A_AC3
Продолжительность : 1 ч. 32 м.
Вид битрейта : Постоянный
Битрейт : 192 Кбит/сек
Каналы : 2 канала
Расположение каналов : Front: L R
Частота : 48,0 КГц
Метод сжатия : С потерями
Размер потока : 126 Мбайт (6%)
Заголовок : AVO (Ю.Сербин)
Язык : Russian
Default : Нет
Forced : Нет
Аудио #3
Идентификатор : 4
Формат : AC-3
Формат/Информация : Audio Coding 3
Расширение режима : CM (complete main)
Параметр Endianness формата : Big
Идентификатор кодека : A_AC3
Продолжительность : 1 ч. 32 м.
Вид битрейта : Постоянный
Битрейт : 192 Кбит/сек
Каналы : 2 канала
Расположение каналов : Front: L R
Частота : 48,0 КГц
Метод сжатия : С потерями
Размер потока : 126 Мбайт (6%)
Язык : English
Default : Нет
Forced : Нет
Текст #1
Идентификатор : 5
Формат : UTF-8
Идентификатор кодека : S_TEXT/UTF8
Идентификатор кодека/Информация : UTF-8 Plain Text
Язык : Russian
Default : Нет
Forced : Нет
Текст #2
Идентификатор : 6
Формат : UTF-8
Идентификатор кодека : S_TEXT/UTF8
Идентификатор кодека/Информация : UTF-8 Plain Text
Язык : English
Default : Нет
Forced : Нет
Меню
00:00:00.000 : en:Chapter 1
00:13:07.133 : en:Chapter 2
00:29:18.567 : en:Chapter 3
00:42:05.535 : en:Chapter 4
01:00:52.403 : en:Chapter 5
01:17:36.237 : en:Chapter 6
01:32:01.000 : en:Chapter 7



_________________
Проголосуй за трекер Открытый торрент трекер - RUS-MEDIA.ORG

Проголосуй Открытый торрент трекер - RUS-MEDIA.ORG


Вернуться к началу
 Профиль Отправить личное сообщение  
 
   Похожие торренты   Автор   Торрент   Размер 
В этой теме нет новых непрочитанных сообщений. Геркулес / Hercules [S01-02] [Мультфильм, семейный, приключения, история, 1998-1999] SATRip, Dub

salma3

12 | 16

14.83 ГБ

В этой теме нет новых непрочитанных сообщений. Жандарм в Нью-Йорке / Le gendarme a New York [комедия, 1965] BDRip 1080p, Mvo

salma3

0 | 0

12.11 ГБ

В этой теме нет новых непрочитанных сообщений. Пять минаретов в Нью-Йорке / Five Minarets in New York [драма, 2010] BDRip, Mvo

salma3

26 | 4

1.46 ГБ

В этой теме нет новых непрочитанных сообщений. Жандарм в Нью-Йорке / Le gendarme a New York [комедия, 1965] BDRip 720p, 5Mvo+Avo+Sub

salma3

1 | 1

4.36 ГБ

В этой теме нет новых непрочитанных сообщений. Жандарм в Нью-Йорке / Le gendarme a New York [комедия, криминал, 1965] BDRip, Mvo [РенТВ]

salma3

40 | 14

1.45 ГБ

В этой теме нет новых непрочитанных сообщений. Единственный живой парень в Нью-Йорке / The Only Living Boy in New York [Драма, 2017] BDRip, Mvo

salma3

0 | 0

1.46 ГБ

В этой теме нет новых непрочитанных сообщений. Жандарм в Нью-Йорке / Le gendarme а New York [комедия, 1965] HDTVRip-AVC, Mvo

salma3

8 | 3

1.74 ГБ


Начать новую тему Ответить на тему  [ 1 сообщение ] 




Для Мосгорсуда, Роскомнадзора и рекламодателей:: mosgorsud-torrent[собачка]yandex.ru
cron