Торрент файл
скачать торрент магнет ссылка Добавлен: 10 дек 2016, 12:35
Размер: 2.93 ГБ
Сидеров: 214
Личеров: 45
Статус: (salma3)
Автор

СообщениеДобавлено: 10 дек 2016, 12:35 

Не в сети
Супермодератор
Аватара пользователя
Дата регистрации:
15 фев 2012, 16:44
Возраст: 28
Спасибо: 6642 / 2146
Сообщения: 45738
Год выпуска: 2005
Жанр: фэнтези, драма, мелодрама, комедия, музыка
Режиссер: Джейк Пэлтроу

В ролях: Гвинет Пэлтроу, Мартин Фриман, Дэнни Де Вито, Пенелопа Крус, Саймон Пегг, Питер Рник, Амбер Роуз Сили, Стеффан Бойе, Стивен Грэм, Кейт Харпер, Бруно Ластра, Мартино Лаццери, Мередит МакНейл, Скай Беннетт, Финти Уильямс, Кейт Аллен, Люси ДеВито, Майкл Гэмбон

Описание:
Когда-то Гэри пережил момент славы, став автором одного хита. Ныне он изредка подрабатывает, сочиняя музыку к рекламным роликам, которые снимает агентство его друга и бывшего соратника Пола. Работы мало, и отношения Гэри с его девушкой Дорой, думавшей, что он станет звездой, медленно разваливаются. В какой-то момент Гэри начинает являться во снах знойная брюнетка Анна, но ему все время что-то мешает. В погоне за призрачным счастьем любовных утех с Анной Гэри затемняет окна, обивает квартиру звукоизоляционным материалом и находит специалиста по управлению снами.



Страна: США, Великобритания, Германия
Продолжительность: 01:29:21
Перевод: Профессиональный (многоголосый закадровый)[CP-Digital]
Субтитры: Русские, Английские

Формат: DVDRip-AVC, MKV, H.264, AC3
Видео: 1024x572 (16:9), 25 fps, AVC MPEG-4 (x264), , 3800 Кbps avg, 0.260 bit/pixel
Аудио: 48 kHz, AC3 Dolby Digital, 3/2 (L,C,R,l,r) + LFE ch, ~448 kbps
За исходник спасибо – oljg

x264 [info]: frame I:784 Avg QP:15.57 size: 65722
x264 [info]: frame P:24396 Avg QP:18.24 size: 34475
x264 [info]: frame B:108845 Avg QP:20.16 size: 15172
x264 [info]: consecutive B-frames: 1.1% 0.9% 3.2% 6.4% 7.6% 71.8% 3.5% 1.9% 1.4% 0.3% 0.2% 0.8% 1.0%

Общее
Уникальный идентификатор : 246519966194587156032777933731029361017 (0xB97604BAFF3E474DA4DDC13F61CCA179)
Полное имя : Спокойной ночи (The Good Night) 2007 DVDRip.mkv
Формат : Matroska
Версия формата : Version 2
Размер файла : 2,93 Гбайт
Продолжительность : 1 ч. 29 м.
Общий поток : 4694 Кбит/сек
Дата кодирования : UTC 2016-12-07 20:52:44
Программа кодирования : mkvmerge v4.0.0 ('The Stars were mine') сборка от Jun 6 2010 16:18:42
Библиотека кодирования : libebml v1.0.0 + libmatroska v1.0.0

Видео
Идентификатор : 1
Формат : AVC
Формат/Информация : Advanced Video Codec
Профиль формата :
Параметр CABAC формата : Да
Параметр ReFrames формата : 12 кадров
Идентификатор кодека : V_MPEG4/ISO/AVC
Продолжительность : 1 ч. 29 м.
Битрейт : 3800 Кбит/сек
Ширина : 1024 пикселя
Высота : 572 пикселя
Соотношение сторон : 16:9
Режим частоты кадров : Постоянный
Частота кадров : 25,000 кадров/сек
Цветовое пространство : YUV
Субдискретизация насыщенности : 4:2:0
Битовая глубина : 8 бит
Тип развёртки : Прогрессивная
Бит/(Пиксели*Кадры) : 0.260
Размер потока : 2,31 Гбайт (79%)
Библиотека кодирования : x264 core 146 r2538 121396c
Настройки программы : cabac=1 / ref=12 / deblock=1:-3:-3 / analyse=0x3:0x133 / me=umh / subme=11 / psy=1 / psy_rd=1.00:0.00 / mixed_ref=1 / me_range=32 / chroma_me=1 / trellis=2 / 8x8dct=1 / cqm=0 / deadzone=21,11 / fast_pskip=0 / chroma_qp_offset=-2 / threads=12 / lookahead_threads=2 / sliced_threads=0 / nr=0 / decimate=0 / interlaced=0 / bluray_compat=0 / constrained_intra=0 / bframes=12 / b_pyramid=2 / b_adapt=2 / b_bias=0 / direct=3 / weightb=1 / open_gop=0 / weightp=2 / keyint=250 / keyint_min=25 / scenecut=40 / intra_refresh=0 / rc=2pass / mbtree=0 / bitrate=3800 / ratetol=1.0 / qcomp=0.60 / qpmin=0 / qpmax=69 / qpstep=4 / cplxblur=20.0 / qblur=0.5 / ip_ratio=1.40 / pb_ratio=1.30 / aq=1:0.80
Язык : English
Default : Нет
Forced : Нет

Аудио #1
Идентификатор : 2
Формат : AC-3
Формат/Информация : Audio Coding 3
Расширение режима : CM (complete main)
Параметр Endianness формата : Big
Идентификатор кодека : A_AC3
Продолжительность : 1 ч. 29 м.
Вид битрейта : Постоянный
Битрейт : 448 Кбит/сек
Каналы : 6 каналов
Расположение каналов : Front: L C R, Side: L R, LFE
Частота : 48,0 КГц
Частота кадров : 31,250 кадров/сек (1536 spf)
Метод сжатия : С потерями
Размер потока : 286 Мбайт (10%)
Заголовок : MVO CP-Digital
Язык : Russian
Default : Нет
Forced : Нет

Аудио #2
Идентификатор : 3
Формат : AC-3
Формат/Информация : Audio Coding 3
Расширение режима : CM (complete main)
Параметр Endianness формата : Big
Идентификатор кодека : A_AC3
Продолжительность : 1 ч. 29 м.
Вид битрейта : Постоянный
Битрейт : 448 Кбит/сек
Каналы : 6 каналов
Расположение каналов : Front: L C R, Side: L R, LFE
Частота : 48,0 КГц
Частота кадров : 31,250 кадров/сек (1536 spf)
Метод сжатия : С потерями
Размер потока : 286 Мбайт (10%)
Язык : English
Default : Нет
Forced : Нет

Текст #1
Идентификатор : 4
Формат : UTF-8
Идентификатор кодека : S_TEXT/UTF8
Идентификатор кодека/Информация : UTF-8 Plain Text
Язык : Russian
Default : Нет
Forced : Нет

Текст #2
Идентификатор : 5
Формат : UTF-8
Идентификатор кодека : S_TEXT/UTF8
Идентификатор кодека/Информация : UTF-8 Plain Text
Язык : English
Default : Нет
Forced : Нет




_________________
Проголосуй за трекер Открытый торрент трекер - RUS-MEDIA.ORG

Проголосуй Открытый торрент трекер - RUS-MEDIA.ORG



реклама партнёра


Вернуться к началу
 Профиль Отправить личное сообщение  
 
   Похожие торренты   Автор   Торрент   Размер 
В этой теме нет новых непрочитанных сообщений. Спокойной ночи / The Good Night (2007) WEB-DL 720p | P

marya111

62 | 6

3.12 ГБ

В этой теме нет новых непрочитанных сообщений. Под покровом ночи / В холоде ночи / In The Cold Of The Night [Триллер, мелодрама, детектив, 1990] DVDRip, Avo

salma3

21 | 7

1.45 ГБ

В этой теме нет новых непрочитанных сообщений. Секс на две ночи / Любовь с первого взгляда / Two Night Stand [комедия, мелодрама, 2014] BDRip, Mvo

salma3

102 | 48

1.71 ГБ

В этой теме нет новых непрочитанных сообщений. Плач в ночи / Night Cries [боевик, драма, мелодрама, 2015] WEBDLRip, Mvo

salma3

130 | 84

1.37 ГБ

В этой теме нет новых непрочитанных сообщений. Пропавшая в ночи / Gone in the Night [драма, 1996] DVDRip, Avo

salma3

21 | 6

2.87 ГБ

В этой теме нет новых непрочитанных сообщений. Вкус Ночи / Wir sind die Nacht [ужасы, фэнтези, драма, мелодрама, 2010] BDRemux, Dub

salma3

0 | 40

20.09 ГБ

В этой теме нет новых непрочитанных сообщений. Дух ночи / Huntress: Spirit of the Night [ужасы, 1995] DVDRip, Avo

salma3

5 | 2

1.46 ГБ


Начать новую тему Ответить на тему  [ 1 сообщение ] 




Для Мосгорсуда, Роскомнадзора и рекламодателей:: mosgorsud-torrent[собачка]yandex.ru