Торрент файл
скачать торрент магнет ссылка Добавлен: 08 дек 2016, 19:42
Размер: 745.07 МБ
Сидеров: 205
Личеров: 15
Автор

СообщениеДобавлено: 08 дек 2016, 19:42 

Не в сети
Дата регистрации:
28 сен 2016, 18:10
Спасибо: 216 / 0
Сообщения: 1997
Информация о фильме
Название: Только правда
Оригинальное название: The Whole Truth
Год выхода: 2016
Жанр: триллер, драма
Режиссер: Кортни Хант
В ролях: Киану Ривз, Рене Зеллвегер, Гугу Эмбата-Ро, Шон Бриджерс, Джеймс Белуши, Кеннет Чои, Гэбриел Бассо, Кристофер Берри, Лара Грайс
О фильме: Адвокат пытается доказать невиновность клиента-подростка, которого обвиняют в убийстве богатого отца...

Страна: США
Студия: Atlas Entertainment, Likely Story, Merced Media Partners, Palm-Star Entertainment
Продолжительность: 01:33:33
Перевод: Любительский (многоголосый, закадровый) | Студия Пиратского Дубляжа
Субтитры: Нет
Семпл
Файл
Кодек: XviD
Качество: HDRip
Видео: 720x304 (2.37:1), 23.976 fps, XviD build 73 ~911 kbps avg, 0.17 bit/pixel
Звук: 48 kHz, MPEG Layer 3, 2 ch, ~192.00 kbps avg
Общее
Полное имя : The.Whole.Truth.2016.HDRip.ot.Portablius.avi
Формат : AVI
Формат/Информация : Audio Video Interleave
Размер файла : 745 Мбайт
Продолжительность : 1 ч. 33 м.
Общий поток : 1113 Кбит/сек
Программа кодирования : VirtualDubMod 1.5.10.3 | www.virtualdub-fr.org || (build 2550/release)
Библиотека кодирования : VirtualDubMod build 2550/release
Видео
Идентификатор : 0
Формат : MPEG-4 Visual
Профиль формата : Advanced Simple@L5
Параметр BVOP формата : 1
Параметр QPel формата : Нет
Параметр GMC формата : Без точки перехода
Параметр матрицы формата : Выборочная
Идентификатор кодека : XVID
Идентификатор кодека/Подсказка : XviD
Продолжительность : 1 ч. 33 м.
Битрейт : 912 Кбит/сек
Ширина : 720 пикселей
Высота : 304 пикселя
Соотношение сторон : 2,35:1
Частота кадров : 23,976 (24000/1001) кадра/сек
Частота кадров в оригинале : 23,976 (23976/1000) кадра/сек
Цветовое пространство : YUV
Субдискретизация насыщенности : 4:2:0
Битовая глубина : 8 бит
Тип развёртки : Прогрессивная
Метод сжатия : С потерями
Бит/(Пиксели*Кадры) : 0.174
Размер потока : 610 Мбайт (82%)
Библиотека кодирования : XviD 73
Аудио
Идентификатор : 1
Формат : MPEG Audio
Версия формата : Version 1
Профиль формата : Layer 3
Идентификатор кодека : 55
Идентификатор кодека/Подсказка : MP3
Продолжительность : 1 ч. 33 м.
Вид битрейта : Постоянный
Битрейт : 192 Кбит/сек
Каналы : 2 канала
Частота : 48,0 КГц
Метод сжатия : С потерями
Размер потока : 128 Мбайт (17%)
Выравнивание : Соединение по промежуткам
Продолжительность промежутка : 42 мс. (1,00 видеокадр)
Время предзагрузки промежутка : 504 мс.
Библиотека кодирования : LAME3.99r
Настройки программы : -m s -V 4 -q 2 -lowpass 18.6 -b 192










Вернуться к началу
 Профиль Отправить личное сообщение  
 
   Похожие торренты   Автор   Торрент   Размер 
В этой теме нет новых непрочитанных сообщений. Грешники и праведники / Outlaws and Angels (триллер, драма, вестерн, 2016) HDRip от Portablius | L

marya111

149 | 21

746.91 МБ

В этой теме нет новых непрочитанных сообщений. Недооформлен Нерв / Nerve (триллер, криминал, детектив, приключения, 2016) HDRip от Portablius | Line Данный торрент является блокированным, причина: недооформленный торрент

marya111

0 | 0

746.15 МБ

В этой теме нет новых непрочитанных сообщений. Только правда / The Whole Truth ( триллер, драма, 2016) HDRip | L

marya111

1231 | 85

1.35 ГБ

В этой теме нет новых непрочитанных сообщений. Только правда / The Whole Truth [триллер, драма, 2016] HDRip, Mvo

salma3

2275 | 120

1.37 ГБ

В этой теме нет новых непрочитанных сообщений. Инферно / Inferno (Боевик, триллер, драма, криминал, детектив, 2016) WEB-DLRip от Portablius | Line

marya111

620 | 85

746.21 МБ

В этой теме нет новых непрочитанных сообщений. Спектральный анализ / Spectral (фантастика, боевик, триллер, 2016) WEBRip от Portablius | L

marya111

571 | 92

746.63 МБ

В этой теме нет новых непрочитанных сообщений. Только правда / The Whole Truth [триллер, драма, 2016] WEBRip, Mvo

salma3

1658 | 45

1.37 ГБ


Начать новую тему Ответить на тему  [ 1 сообщение ] 




Для Мосгорсуда, Роскомнадзора и рекламодателей:: mosgorsud-torrent[собачка]yandex.ru
cron