Торрент файл
скачать торрент магнет ссылка Добавлен: 02 дек 2016, 11:28
Размер: 2.68 ГБ
Сидеров: 1555
Личеров: 135
Статус: (salma3)
Автор

СообщениеДобавлено: 02 дек 2016, 11:28 

В сети
Супермодератор
Аватара пользователя
Дата регистрации:
15 фев 2012, 16:44
Возраст: 28
Спасибо: 6474 / 2129
Сообщения: 41004
Год выхода: 2016
Жанр: комедия
Режиссёр фильма: Филипп де Шоврон

Актёры: Эри Абиттан, Меди Садун, Сириль Леконт, Слиман Дази, Рем Кериси, Лоик Лежандр, Patson, Jehanguir Byramjee, Эдгар Живри, Ивонн Граделе

О фильме: Несгибаемый коп Хосе Фернандес получает задание экстрадировать в Кабул обычного человека по имени Аким, которого по ошибке приняли за террориста. Аким никогда прежде не был ни в каком Кабуле, но для Хосе это не имеет никакого значения. Задание должно быть выполнено. Однако вынужденная посадка в Мальте внезапно меняет все карты. Теперь Хосе самого принимают за араба и им обоим приходится пуститься в бега.



Выпущено: Франция
Продолжительность: 01:27:18
Озвучивание: Дублированное [iTunes]
Релиз без рекламы!

Файл
Формат: MKV (x264)
Качество: WEB-DL 720p
Видео: 4003 kb/s, 1280@960x718
Аудио: AC3, 384 kb/s (6 ch)

Format : Matroska
Format version : Version 2
File size : 2.68 GiB
Duration : 1 h 27 min
Overall bit rate : 4 389 kb/s
Encoded date : UTC 2016-11-30 19:05:52
Writing application : mkvmerge v8.3.0 ('Over the Horizon') 64bit
Writing library : libebml v1.3.1 + libmatroska v1.4.2
Video
ID : 1
Format : AVC
Format/Info : Advanced Video Codec
Format profile : Main@L3.1
Format settings, CABAC : No
Format settings, ReFrames : 2 frames
Codec ID : V_MPEG4/ISO/AVC
Duration : 1 h 27 min
Bit rate : 4 003 kb/s
Width : 960 pixels
Height : 718 pixels
Display aspect ratio : 16:9
Frame rate mode : Constant
Frame rate : 25.000 FPS
Color space : YUV
Chroma subsampling : 4:2:0
Bit depth : 8 bits
Scan type : Progressive
Bits/(Pixel*Frame) : 0.232
Stream size : 2.44 GiB (91%)
Language : English
Default : Yes
Forced : No
Color range : Limited
Color primaries : BT.709
Transfer characteristics : BT.709
Matrix coefficients : BT.709
Audio
ID : 2
Format : AC-3
Format/Info : Audio Coding 3
Mode extension : CM (complete main)
Format settings, Endianness : Big
Codec ID : A_AC3
Duration : 1 h 27 min
Bit rate mode : Constant
Bit rate : 384 kb/s
Channel(s) : 6 channels
Channel positions : Front: L C R, Side: L R, LFE
Sampling rate : 48.0 kHz
Frame rate : 31.250 FPS (1536 spf)
Compression mode : Lossy
Stream size : 240 MiB (9%)
Language : Russian
Default : Yes
Forced : No
Menu
00:00:00.000 : en:Глава 1
00:06:25.240 : en:Глава 2
00:13:37.680 : en:Глава 3
00:20:42.360 : en:Глава 4
00:27:01.080 : en:Глава 5
00:33:59.160 : en:Глава 6
00:40:20.040 : en:Глава 7
00:46:53.000 : en:Глава 8
00:53:07.920 : en:Глава 9
00:59:26.240 : en:Глава 10
01:05:51.840 : en:Глава 11
01:12:46.600 : en:Глава 12
01:18:47.160 : en:Глава 13



_________________
Проголосуй за трекер Открытый торрент трекер - RUS-MEDIA.ORG

Проголосуй Открытый торрент трекер - RUS-MEDIA.ORG



реклама партнёра


Вернуться к началу
 Профиль Отправить личное сообщение  
 
   Похожие торренты   Автор   Торрент   Размер 
В этой теме нет новых непрочитанных сообщений. С вещами на вылет! / Debarquement immediat! [комедия, 2016] WEB-DLRip, Mvo

salma3

8543 | 871

1.37 ГБ

В этой теме нет новых непрочитанных сообщений. С вещами на вылет! / Debarquement immediat! / Last Call for Nowhere [комедия, 2016] WEBDLRip-AVC, Mvo

salma3

586 | 109

1.47 ГБ

В этой теме нет новых непрочитанных сообщений. С вещами на вылет! / Debarquement immediat! / Last Call for Nowhere [комедия, 2016] WEB-DL 1080p, Mvo

salma3

238 | 52

3.35 ГБ

В этой теме нет новых непрочитанных сообщений. С вещами на вылет! / Débarquement immédiat! (Филипп де Шоврон) [2016, Филипп де Шоврон, WEB-DLRip | iTunes] Dub

marya111

934 | 28

746.43 МБ

В этой теме нет новых непрочитанных сообщений. Жмот / Radin ! [комедия, 2016] BDRip 720p, Dub [iTunes]

salma3

1037 | 477

3.31 ГБ

В этой теме нет новых непрочитанных сообщений. Супер Брис / Brice 3 [комедия, 2016] BDRip 720p, Dub [iTunes]

salma3

158 | 75

4.62 ГБ

В этой теме нет новых непрочитанных сообщений. Опасные каникулы [Приключения, семейный, комедия, 2016] WEB-DL 720p [iTunes]

salma3

693 | 86

2.34 ГБ


Начать новую тему Ответить на тему  [ 1 сообщение ] 




Для Мосгорсуда, Роскомнадзора и рекламодателей:: mosgorsud-torrent[собачка]yandex.ru