Торрент файл
скачать торрент магнет ссылка Добавлен: 01 дек 2016, 23:41
Размер: 2.21 ГБ
Сидеров: 103
Личеров: 18
Статус: (salma3)
Автор

СообщениеДобавлено: 01 дек 2016, 23:41 

Не в сети
Супермодератор
Аватара пользователя
Дата регистрации:
15 фев 2012, 16:44
Возраст: 28
Спасибо: 7163 / 2147
Сообщения: 61790
Год выпуска: 2016
Жанр: триллер, драма, вестерн
Режиссер: ДжейТи Мольнер

В ролях: Чад Майкл Мюррэй, Франческа Фишер-Иствуд, Тери Поло, Фрэнсис Фишер, Люк Уилсон, Бен Браудер, Мэдисен Бити, Стивен Майкл Квезада

Описание:
Удирая от погони, шайка преступников, забирается в дом ничего не подозревающего семейства, чтобы укрыться на ночь. Появление непрошенных гостей влечёт за собой необратимые последствия для всех членов семьи...



Страна: США
Продолжительность: 01:59:44
Перевод: Любительский (многоголосый, закадровый) [Студия Пиратского Дубляжа]

Формат: HDRip-AVC, MKV, H.264, AC3
Видео: 1040x408 (2.549), 23.976fps, AVC MPEG-4 (x264), , 2455Kbps, 0.241Bits/(Pixel*Frame)
Аудио: русский AC3, 48.0KHz, 2ch, 192Kbps

Доп. информация: Без рекламы!

General
Unique ID : 206578067768979661313260777447521395677 (0x9B697D189FED75988279C07DE45623DD)
Complete name : D:\загрузка\outlaws_and_angels_encoded_by_hodovik.mkv
Format : Matroska
Format version : Version 4 / Version 2
File size : 2.21 GiB
Duration : 1h 59mn
Overall bit rate : 2 649 Kbps
Encoded date : UTC 2016-12-01 18:23:45
Writing application : mkvmerge v6.1.0 ('Old Devil') built on Mar 4 2013 09:10:42
Writing library : libebml v1.3.0 + libmatroska v1.4.0

Video
ID : 1
Format : AVC
Format/Info : Advanced Video Codec
Format profile :
Format settings, CABAC : Yes
Format settings, ReFrames : 8 frames
Codec ID : V_MPEG4/ISO/AVC
Duration : 1h 59mn
Bit rate : 2 455 Kbps
Width : 1 040 pixels
Height : 408 pixels
Display aspect ratio : 2.549
Frame rate : 23.976 fps
Color space : YUV
Chroma subsampling : 4:2:0
Bit depth : 8 bits
Scan type : Progressive
Bits/(Pixel*Frame) : 0.241
Stream size : 2.01 GiB (91%)
Title : outlaws_and_angels_encoded_by_hodovik
Writing library : x264 core 130 r2273 b3065e6
Encoding settings : cabac=1 / ref=8 / deblock=1:-1:-1 / analyse=0x3:0x133 / me=umh / subme=7 / psy=1 / psy_rd=1.00:0.10 / mixed_ref=1 / me_range=16 / chroma_me=1 / trellis=2 / 8x8dct=1 / cqm=0 / deadzone=21,11 / fast_pskip=0 / chroma_qp_offset=-3 / threads=3 / lookahead_threads=1 / sliced_threads=0 / nr=0 / decimate=1 / interlaced=0 / bluray_compat=0 / constrained_intra=0 / bframes=3 / b_pyramid=2 / b_adapt=2 / b_bias=0 / direct=3 / weightb=1 / open_gop=0 / weightp=2 / keyint=250 / keyint_min=23 / scenecut=40 / intra_refresh=0 / rc_lookahead=50 / rc=2pass / mbtree=1 / bitrate=2455 / ratetol=1.0 / qcomp=0.60 / qpmin=0 / qpmax=69 / qpstep=4 / cplxblur=20.0 / qblur=0.5 / ip_ratio=1.40 / aq=1:1.00
Language : English
Default : Yes
Forced : No

Audio
ID : 2
Format : AC-3
Format/Info : Audio Coding 3
Mode extension : CM (complete main)
Codec ID : A_AC3
Duration : 1h 59mn
Bit rate mode : Constant
Bit rate : 192 Kbps
Channel(s) : 2 channels
Channel positions : Front: L R
Sampling rate : 48.0 KHz
Bit depth : 16 bits
Compression mode : Lossy
Stream size : 164 MiB (7%)
Title : MVO
Language : Russian
Default : Yes
Forced : No




Автор рипа:hodovik


_________________
Проголосуй за трекер Открытый торрент трекер - RUS-MEDIA.ORG

Проголосуй Открытый торрент трекер - RUS-MEDIA.ORG


Вернуться к началу
 Профиль Отправить личное сообщение  
 
   Похожие торренты   Автор   Торрент   Размер 
В этой теме нет новых непрочитанных сообщений. Грешники и праведники / Outlaws and Angels [триллер, драма, вестерн, 2016] HDRip, Mvo

salma3

109 | 20

1.37 ГБ

В этой теме нет новых непрочитанных сообщений. Грешники и праведники / Outlaws and Angels [триллер, драма, вестерн, 2016] HDRip, Mvo

salma3

93 | 19

2.05 ГБ

В этой теме нет новых непрочитанных сообщений. Грешники и праведники / Outlaws and Angels (триллер, драма, вестерн, 2016) HDRip от Portablius | L

marya111

149 | 21

746.91 МБ

В этой теме нет новых непрочитанных сообщений. Грешники и праведники / Outlaws and Angels [триллер, драма, вестерн, 2016] WEB-DL 1080p, Mvo

salma3

198 | 17

3.62 ГБ

В этой теме нет новых непрочитанных сообщений. Грешники и праведники / Outlaws and Angels [триллер, драма, вестерн, 2016] WEB-DLRip, Mvo

salma3

627 | 45

1.46 ГБ

В этой теме нет новых непрочитанных сообщений. Грешники и праведники / Outlaws and Angels [триллер, драма, вестерн, 2016] BDRip 1080p, Mvo

salma3

273 | 61

9.92 ГБ

В этой теме нет новых непрочитанных сообщений. Грешники и праведники / Outlaws and Angels [триллер, драма, вестерн, 2016] BDRip 720p, Mvo

salma3

459 | 91

5.25 ГБ


Начать новую тему Ответить на тему  [ 1 сообщение ] 




Для Мосгорсуда, Роскомнадзора и рекламодателей:: mosgorsud-torrent[собачка]yandex.ru
cron