Торрент файл
скачать торрент магнет ссылка Добавлен: 25 ноя 2016, 22:19
Размер: 2.18 ГБ
Сидеров: 21
Личеров: 3
Статус: (salma3)
Автор

СообщениеДобавлено: 25 ноя 2016, 22:19 

Не в сети
Супермодератор
Аватара пользователя
Дата регистрации:
15 фев 2012, 16:44
Возраст: 28
Спасибо: 7224 / 2147
Сообщения: 68058
Перевод: Профессиональный (двухголосый), субтитры: отсутствуют
Формат: BDRip-AVC, MKV, H.264, AC3
Страна: Великобритания
Режиссер: Джон Франкенхаймер
Жанр: триллер, боевик, драма, мелодрама
Продолжительность: 01:52:39
Год выпуска: 1985

В ролях: Майкл Кейн, Энтони Эндрюс, Виктория Теннант, Лилли Палмер, Марио Адорф, Микаэль Лонсдаль, Бернард Хептон, Рихард Мюнх, Карл Ригг, Андре Пенверн

Описание:
Сын высокопоставленного нациста в наше время оказывается распорядителем многомиллионного фонда. Деньги оставлены ему отцом, который под конец жизни раскаялся в своих грехах и настоял на том, чтобы сын с несколькими товарищами направил миллионы на благие дела. Но совершенно ясно, что у этого начинания оказалось много врагов. Главный герой оказывается в ловушке.
Экранизация по произведению Роберта Ладлэма.



Видео: 1024x552 (1,85:1) 23.976 fps, MPEG4 AVC (x264) , 2381 kbps avg, 0.176 bit/pixel
Аудио #1: Русский: 48.0 kHz, AC3 Dolby Digital, 2/0 (L,R) ch, ~192 kbps [профессиональный (двухголосый)]
Аудио #2: Английский: 48.0 kHz, AC3 Dolby Digital, 2/0 (L,R) ch, ~192 kbps [Оригинал]

General
Complete name : D:\Zavescanie_Holkrofta.1985.BDRip.2,1gb.mkv
Format : Matroska
File size : 2.18 GiB
Duration : 1h 52mn
Overall bit rate : 2 766 Kbps
Encoded date : UTC 2016-05-31 06:25:11
Writing application : mkvmerge v7.7.0 ('Six Voices') 32bit built on Feb 28 2015 23:23:00
Writing library : libebml v1.3.1 + libmatroska v1.4.2

Video
ID : 1
Format : AVC
Format/Info : Advanced Video Codec
Format profile :
Format settings, CABAC : Yes
Format settings, ReFrames : 9 frames
Codec ID : V_MPEG4/ISO/AVC
Duration : 1h 52mn
Bit rate : 2 381 Kbps
Width : 1 024 pixels
Height : 552 pixels
Display aspect ratio : 1.855
Frame rate : 23.976 fps
Color space : YUV
Chroma subsampling : 4:2:0
Bit depth : 8 bits
Scan type : Progressive
Bits/(Pixel*Frame) : 0.176
Stream size : 1.83 GiB (84%)
Writing library : x264 core 146 r2538 121396c
Encoding settings : cabac=1 / ref=9 / deblock=1:-3:-3 / analyse=0x3:0x133 / me=umh / subme=10 / psy=1 / psy_rd=1.00:0.00 / mixed_ref=1 / me_range=32 / chroma_me=1 / trellis=2 / 8x8dct=1 / cqm=0 / deadzone=21,11 / fast_pskip=0 / chroma_qp_offset=-2 / threads=3 / lookahead_threads=1 / sliced_threads=0 / nr=0 / decimate=1 / interlaced=0 / bluray_compat=0 / constrained_intra=0 / bframes=9 / b_pyramid=2 / b_adapt=2 / b_bias=0 / direct=3 / weightb=1 / open_gop=0 / weightp=2 / keyint=240 / keyint_min=23 / scenecut=40 / intra_refresh=0 / rc_lookahead=40 / rc=2pass / mbtree=1 / bitrate=2381 / ratetol=1.0 / qcomp=0.60 / qpmin=10 / qpmax=51 / qpstep=4 / cplxblur=20.0 / qblur=0.5 / vbv_maxrate=50000 / vbv_bufsize=62500 / nal_hrd=none / filler=0 / ip_ratio=1.40 / aq=1:1.00

Audio #1
ID : 2
Format : AC-3
Format/Info : Audio Coding 3
Mode extension : CM (complete main)
Codec ID : A_AC3
Duration : 1h 52mn
Bit rate mode : Constant
Bit rate : 192 Kbps
Channel(s) : 2 channels
Channel positions : Front: L R
Sampling rate : 48.0 KHz
Bit depth : 16 bits
Stream size : 155 MiB (7%)
Language : Russian

Audio #2
ID : 3
Format : AC-3
Format/Info : Audio Coding 3
Mode extension : CM (complete main)
Codec ID : A_AC3
Duration : 1h 52mn
Bit rate mode : Constant
Bit rate : 192 Kbps
Channel(s) : 2 channels
Channel positions : Front: L R
Sampling rate : 48.0 KHz
Bit depth : 16 bits
Stream size : 155 MiB (7%)
Language : English

Menu
00:00:00.000 : en:
00:15:48.364 : en:
00:28:39.217 : en:
00:45:37.901 : en:
00:58:04.898 : en:
01:10:55.167 : en:
01:24:30.189 : en:
01:38:42.582 : en:





_________________
Проголосуй за трекер Открытый торрент трекер - RUS-MEDIA.ORG

Проголосуй Открытый торрент трекер - RUS-MEDIA.ORG


Вернуться к началу
 Профиль Отправить личное сообщение  
 
   Похожие торренты   Автор   Торрент   Размер 
В этой теме нет новых непрочитанных сообщений. Сделка с дьяволом / The Covenant [ужасы, фэнтези, боевик, триллер, 2006] BDRip 1080p, Dub

salma3

4 | 1

8.06 ГБ

В этой теме нет новых непрочитанных сообщений. Залив Аламо / Alamo Bay [Боевик, драма, мелодрама, 1985] BDRip, Mvo

salma3

0 | 0

1.46 ГБ

В этой теме нет новых непрочитанных сообщений. Кодекс молчания / Code of Silence [боевик, триллер, драма, 1985] BDRip, Dvo [НТВ+]

salma3

0 | 0

1.46 ГБ

В этой теме нет новых непрочитанных сообщений. Кодекс молчания / Code of Silence [боевик, триллер, драма, 1985] BDRip 1080p, Dvo [НТВ+]

salma3

0 | 0

14.84 ГБ

В этой теме нет новых непрочитанных сообщений. Поезд-беглец / Runaway Train [боевик, триллер, драма, приключения, 1985] BDRip, Avo

salma3

20 | 8

1.45 ГБ

В этой теме нет новых непрочитанных сообщений. Год Дракона / Year of the Dragon [боевик, триллер, драма, криминал, 1985] BDRip 720p, Mvo

salma3

11 | 10

11.27 ГБ

В этой теме нет новых непрочитанных сообщений. Жить и умереть в Лос-Анджелесе / To Live and Die in L.A. [боевик, триллер, драма, криминал, 1985] BDRip 1080p, Mvo

salma3

49 | 13

12.39 ГБ


Начать новую тему Ответить на тему  [ 1 сообщение ] 




Для Мосгорсуда, Роскомнадзора и рекламодателей:: mosgorsud-torrent[собачка]yandex.ru
cron