Торрент файл
скачать торрент магнет ссылка Добавлен: 24 ноя 2016, 13:53
Размер: 1.45 ГБ
Сидеров: 627
Личеров: 26
Автор

СообщениеДобавлено: 24 ноя 2016, 13:53 

Не в сети
Дата регистрации:
28 сен 2016, 18:10
Спасибо: 211 / 0
Сообщения: 1999
Информация о фильме
Название: Большой и добрый великан
Оригинальное название: The BFG
Год выпуска: 2016
Жанр: Фэнтези, экранизация, приключения, семейный
Режиссер: Стивен Спилберг
В ролях: Марк Райлэнс, Руби Барнхилл, Пенелопа Уилтон, Джемейн Клемент, Ребекка Холл, Рейф Сполл, Билл Хейдер, Оулавюр Дарри Оулафссон, Адам Годли, Майкл Адамуэйт
О фильме:
В центре истории девочка по имени Софи, которая не смогла заснуть до полуночи и в окошко увидела огромного великана, который подходил к соседним домам и начинал дуть в окна спален. В полном соответствии со старинными поверьями и детскими страшилками, великан увидел Софи и унес к себе домой, в страну великанов. Как оказалось, он в этой самой стране был единственным добрым великаном: действуя в обстановке строжайшей секретности, он коллекционировал хорошие сны, которые по ночам раздавал детям. Уши у него устроены таким образом, что он слышит, что и о чем снится ребятам, и никогда не позволяет им видеть кошмары.

Страна: Великобритания, Канада, США
Студия: Amblin Entertainment, DreamWorks SKG, Reliance Entertainment
Продолжительность: 01:57:06
Перевод: Дублированный | Чистый звук
Файл
Качество: HDRip-AVC
Формат: МКV
Видео: 984x412, 23.976 fps, High@L4.1, ~1581 kbps
Аудио: 48 kHz, AC3, 2.0, 192 Kbps, ~192 kbps
Субтитры: Английские
General
Unique ID : 56315853505205884423446703485488400404 (0x2A5E09F2CA62C63109E6955738330814)
Complete name : F:Большой и добрый великан.(2016).HDRIP-AVC.[-=DoMiNo=-].mkv
Format : Matroska
Format version : Version 4 / Version 2
File size : 1.45 GiB
Duration : 1 h 57 min
Overall bit rate : 1 774 kb/s
Movie name : Большой и добрый великан
Deion : В центре истории девочка по имени Софи, которая не смогла заснуть до полуночи и в окошко увидела огромного великана, который подходил к соседним домам и начинал дуть в окна спален. В полном соответствии со старинными поверьями и детскими страшилками, великан увидел Софи и унес к себе домой, в страну великанов.Как оказалось, он в этой самой стране был единственным добрым великаном: действуя в обстановке строжайшей секретности, он коллекционировал хорошие сны, которые по ночам раздавал детям. Уши у него устроены таким образом, что он слышит, что и о чем снится ребятам, и никогда не позволяет им видеть кошмары.
Writing application : XviD4PSP 7.0.318 DAILY
Writing library : Lavf57.41.100 / Lavf57.41.100
Attachments : poster.jpg
ACTORS : Марк Райлэнс, Руби Барнхилл, Пенелопа Уилтон, Джемейн Клемент, Ребекка Холл, Рейф Сполл, Билл Хейдер, Оулавюр Дарри Оулафссон, Адам Годли, Майкл Адамуэйт, Дэниэл Бэйкон, Джонатан Холмс, Крис Гиббс, Пол Мониз де Са, Мэрилин Норри, Каллум Сигрем Эйрли, Хэйг Сазерленд, Шона Хансен, Денис Джонс, Габриель Роз, Энтони Ингрэм, Крис Шилдс, Мэтт Фрюэр, Джеффри Вэйд, Джон Эммет Трэйси, Уильям Сэмплз, Энди Томпсон, Пол Барнхилл, Люсия Райан, Джулия Торранс, Кал Дэвис, Кайл Мэлони, Майкл Маклауд, Дэвид Орр, Закари Рид, Дэвид Гловер, Джошуа Каллаган, Тодд Биффард, Рэнди Рэфьюз, Жерардо Баркала, Грэхэм Керри, Джаббз Фаруки, Симона Хьюз, Джефф Кент
COMPOSER : Джон Уильямс
COUNTRY : Великобритания, Канада, США
DATE : 2016
DIRECTOR : Стивен Спилберг
ENCODING_INFO : MATROSKA,WEBM > MKV / H264 > X264 VBR-2P 1581kbps Произвольный / AC3 > COPY
GENRE : фэнтези, приключения, семейный
HD_VIDEO : 1
IMDB_RATING : 6.60
ITUNEXTC : mpaa|PG|200|
MEDIA_TYPE : 9
ORIGINAL_ACTORS : Mark Rylance, Ruby Barnhill, Penelope Wilton, Jemaine Clement, Rebecca Hall, Rafe Spall, Bill Hader, Ólafur Darri Ólafsson (в титрах: Olafur Darri Olafsson), Adam Godley, Michael Adamthwaite (в титрах: Michael David Adamthwaite), Daniel Bacon, Jonathan Holmes, Chris Gibbs, Paul Moniz de Sa, Marilyn Norry, Callum Seagram Airlie, Haig Sutherland, Shauna Hansen, Denise Jones, Gabrielle Rose, Anthony Ingram, Chris Shields, Matt Frewer, Geoffrey Wade, John Emmet Tracy, William Samples, Andy Thompson, Paul Barnhill (в титрах: Paul Stuart Barnhill), Lucia Ryan, Julia Torrance (в титрах: Julia Elizabeth Torrance), Cal Davis, Kyle Maloney, Michael Mcleod, David Orr, Zachary Read, David Glover, Joshua Callagan, Todd Biffard, Randy Rafuse, Gerardo Barcala, Graham Curry, Jabbz Farooqi, Simona Hughes, Jeff Kent
ORIGINAL_TITLE : The BFG
PRODUCER : Фрэнк Маршалл, Сэм Мерсер, Стивен Спилберг, Кэтлин Кеннеди, Кристи Макоско Кригер, Джон Мэдден, Мелисса Мэтисон, Майкл Сигел, Адам Сомнер
RATING : 6.165
WRITER : Мелисса Мэтисон, Роальд Даль
Video
ID : 1
Format : AVC
Format/Info : Advanced Video Codec
Format profile : High@L4.1
Format settings, CABAC : Yes
Format settings, ReFrames : 12 frames
Codec ID : V_MPEG4/ISO/AVC
Duration : 1 h 57 min
Bit rate : 1 581 kb/s
Width : 984 pixels
Height : 412 pixels
Display aspect ratio : 2.40:1
Frame rate mode : Constant
Frame rate : 23.976 (24000/1001) FPS
Color space : YUV
Chroma subsampling : 4:2:0
Bit depth : 8 bits
Scan type : Progressive
Bits/(Pixel*Frame) : 0.163
Stream size : 1.26 GiB (87%)
Title : Rip_by_-=DoMiNo=-
Writing library : x264 core 148 r2721M 72d53ab
Encoding settings : cabac=1 / ref=12 / deblock=1:-3:-3 / analyse=0x3:0x133 / me=umh / subme=11 / psy=1 / psy_rd=1.00:0.10 / mixed_ref=1 / me_range=32 / chroma_me=1 / trellis=2 / 8x8dct=1 / cqm=0 / deadzone=21,11 / fast_pskip=0 / chroma_qp_offset=-3 / threads=5 / lookahead_threads=1 / sliced_threads=0 / nr=0 / decimate=1 / interlaced=0 / bluray_compat=0 / constrained_intra=0 / bframes=11 / b_pyramid=2 / b_adapt=2 / b_bias=0 / direct=3 / weightb=1 / open_gop=0 / weightp=2 / keyint=230 / keyint_min=23 / scenecut=40 / intra_refresh=0 / rc=2pass / mbtree=0 / bitrate=1581 / ratetol=1.0 / qcomp=0.70 / qpmin=0 / qpmax=69 / qpstep=4 / cplxblur=20.0 / qblur=0.5 / ip_ratio=1.40 / pb_ratio=1.30 / aq=1:1.00
Language : English
Default : Yes
Forced : No
Color range : Limited
Matrix coefficients : BT.709
DURATION : 01:57:05.977000000
Audio
ID : 2
Format : AC-3
Format/Info : Audio Coding 3
Mode extension : CM (complete main)
Format settings, Endianness : Big
Codec ID : A_AC3
Duration : 1 h 57 min
Bit rate mode : Constant
Bit rate : 192 kb/s
Channel(s) : 2 channels
Channel positions : Front: L R
Sampling rate : 48.0 kHz
Frame rate : 31.250 FPS (1536 spf)
Bit depth : 16 bits
Compression mode : Lossy
Stream size : 161 MiB (11%)
Title : Line
Language : Russian
Default : Yes
Forced : No
DURATION : 01:57:06.112000000
Text #1
ID : 3
Format : UTF-8
Codec ID : S_TEXT/UTF8
Codec ID/Info : UTF-8 Plain Text
Title : Full
Language : English
Default : Yes
Forced : No
DURATION : 01:48:29.337000000
Text #2
ID : 4
Format : UTF-8
Codec ID : S_TEXT/UTF8
Codec ID/Info : UTF-8 Plain Text
Title : SDH
Language : English
Default : No
Forced : No
DURATION : 01:48:29.337000000
Menu
00:00:00.000 : :00:00:00.000
00:03:33.463 : :00:03:33.463
00:08:02.732 : :00:08:02.732
00:14:05.178 : :00:14:05.178
00:19:45.851 : :00:19:45.851
00:24:50.030 : :00:24:50.030
00:28:29.541 : :00:28:29.541
00:33:33.094 : :00:33:33.094
00:36:51.418 : :00:36:51.418
00:41:04.295 : :00:41:04.295
00:45:48.245 : :00:45:48.245
00:51:52.401 : :00:51:52.401
00:57:36.662 : :00:57:36.662
01:03:46.239 : :01:03:46.239
01:13:41.917 : :01:13:41.917
01:21:54.701 : :01:21:54.701




реклама партнёра


Вернуться к началу
 Профиль Отправить личное сообщение  
 
   Похожие торренты   Автор   Торрент   Размер 
В этой теме нет новых непрочитанных сообщений. Большой и добрый великан / The BFG (Стивен Спилберг) [2016, Фэнтези, экранизация, приключения, семейный] BDRip, Dub (Лицензия)

marya111

160 | 13

1.46 ГБ

В этой теме нет новых непрочитанных сообщений. Большой и добрый великан / The BFG (Фэнтези, экранизация, приключения, семейный, 2016) BDRip-AVC | Line

marya111

99 | 9

965.28 МБ

В этой теме нет новых непрочитанных сообщений. Недооформлен Большой и добрый великан / The BFG (фэнтези, приключения, семейный, 2016) WEB-DLRip | Line Данный торрент является блокированным, причина: недооформленный торрент

marya111

0 | 0

1.37 ГБ

В этой теме нет новых непрочитанных сообщений. Большой и добрый великан / The BFG [Фэнтези, экранизация, приключения, семейный, 2016] BDRemux 1080р, Dub [чистый звук]

salma3

62 | 6

25.06 ГБ

В этой теме нет новых непрочитанных сообщений. Большой и добрый великан / The BFG [Фэнтези, экранизация, приключения, семейный, 2016] BDRip 720р, Dub [чистый звук]

salma3

1773 | 365

4.62 ГБ

В этой теме нет новых непрочитанных сообщений. Большой и добрый великан / The BFG [Фэнтези, экранизация, приключения, семейный, 2016] BDRip 1080р, Dub [Чистый звук]

salma3

621 | 48

11.65 ГБ

В этой теме нет новых непрочитанных сообщений. Большой и добрый великан / The BFG [фэнтези, приключения, семейный, 2016] HDRip, Dub [iTunes]

salma3

187 | 37

1.4 ГБ


Начать новую тему Ответить на тему  [ 1 сообщение ] 




Для Мосгорсуда, Роскомнадзора и рекламодателей:: mosgorsud-torrent[собачка]yandex.ru