Торрент файл
скачать торрент магнет ссылка Добавлен: 20 ноя 2016, 12:47
Размер: 1.45 ГБ
Сидеров: 98
Личеров: 14
Статус: (salma3)
Автор

СообщениеДобавлено: 20 ноя 2016, 12:47 

Не в сети
Супермодератор
Аватара пользователя
Дата регистрации:
15 фев 2012, 16:44
Возраст: 29
Спасибо: 7328 / 2147
Сообщения: 73276
Год выхода: 2012
Жанр: фантастика, боевик, триллер, приключения
Режиссер: Джозеф Дж. Лосон

В ролях: Доминик Суэйн, Джейк Бьюзи, Джош Аллен, Кристофер Карл Джонсон, Джеймс Максвелл Янг, Лилан Боуден, Марлен Окнер, Адам Берч, Мария Паллас, Абдеррахим Халаймиа

О фильме:
Учёные, прибывшие в Антарктиду, оказываются похищенными группой людей в масках, которые увлекают их под Землю. Герои оказываются на подземном континенте, являющимся оплотом нацистов, которым, казалось бы, пришёл конец во время второй мировой войны. Их тела состоят из разрушенной и восстанавливающейся плоти и в их планах возрождение Третьего рейха…



Страна: США, Global Asylum
Продолжительность: 01:29:38
Перевод: Профессиональный (многоголосый закадровый) R5
Cубтитры: русские (R5), английские (fansub)

Файл
Качество: BDRip-AVC
Видео: 1024x576 (16:9) at 23,976 fps, ~2125 Кbps
Аудио: AC3; 192 Kbps; CBR; 2 ch; 48 khz
General
Unique ID : 45566614838179324969555776850014119617 (0x2247CF9077350DD634E3EFD4967E26C1)
Complete name : F:Нацисты в центре Земли.(2012).BDRIP-AVC.[-=DoMiNo=-].mkv
Format : Matroska
Format version : Version 4 / Version 2
File size : 1.45 GiB
Duration : 1 h 29 min
Overall bit rate : 2 320 kb/s
Movie name : Нацисты в центре Земли
Deion : Учёные, прибывшие в Антарктиду, оказываются похищенными группой людей в масках, которые увлекают их под Землю. Герои оказываются на подземном континенте, являющимся оплотом нацистов, которым, казалось бы, пришёл конец во время второй мировой войны. Их тела состоят из разрушенной и восстанавливающейся плоти и в их планах возрождение Третьего рейха…
Writing application : XviD4PSP 7.0.322 DAILY
Writing library : Lavf57.41.100 / Lavf57.41.100
Attachments : poster.jpg
ACTORS : Доминик Суэйн, Джейк Бьюзи, Джошуа Майкл Аллен, Кристофер Карл Джонсон, Джеймс Максвелл Янг, Лилан Боуден, Марлен Окнер, Адам Берч, Мария Паллас, Абдеррахим Халаймиа, Тревор Кун, Андре Тенерелли, Крис Сандерс, Кит Аллан Уилбер, Кевин Аллен, Кенни О’Брайн, Джек Конуэй, Макс Берд-Риднелл, Джордан Джеймс Смит, Кайл Гарибальди, Арам Акопян, Дэниэл Баттон, Сэмюэл Фишер, Питер Грили, Уэсли Алан Джонсон, Тревор Линдборг, Джефф Ньюман, Эндрю Равани, Джин Шоу, Justin Zugari, Varick Addler, Джон Конделик, Шон Патрик Уоткинс
COMPOSER : Крис Риденауа
COUNTRY : США
DATE : 2012
DIRECTOR : Джозеф Дж. Лосон
ENCODING_INFO : MATROSKA,WEBM > MKV / MPEG2 > X264 VBR-2P 2125kbps Произвольный / AC3 > COPY
GENRE : фантастика, боевик, триллер, приключения
HD_VIDEO : 1
IMDB_RATING : 3.10
ITUNEXTC : mpaa|R|400|
MEDIA_TYPE : 9
ORIGINAL_ACTORS : Dominique Swain, Jake Busey, Joshua Michael Allen (в титрах: Josh Allen), Christopher Karl Johnson (в титрах: Christopher K. Johnson), James Maxwell Young (в титрах: James Maxwell), Lilan Bowden, Marlene Okner, Adam Burch, Maria Pallas, Abderrahim Halaimia, Trevor Kuhn, Andre Tenerelli, Chris Sanders (в титрах: Cristofer Sanders), Keith Allan Wilber, Kevin Allen, Kenny O'Brian, Jack Conway, Max Bird-Ridnell, Jordan James Smith, Kyle Garibaldi (в титрах: Kyle Geribaldi), Aram Akopyan, Daniel Button, Samuel Fisher (в титрах: Sam Fisher), Peter Greeley, Wesley Alan Johnson, Trevor Lindborg, Jeff Newman, Andrew Ravani, Gene Shaw, Jon Kondelik, Sean Patrick Watkins
ORIGINAL_TITLE : Nazis at the Center of the Earth
PRODUCER : Дэвид Майкл Лэтт, Пол Бейлс, Дэвид Римави, Девин Уорд
RATING : 3.184…
WRITER : Пол Бейлс
Video
ID : 1
Format : AVC
Format/Info : Advanced Video Codec
Format profile : High@L4.1
Format settings, CABAC : Yes
Format settings, ReFrames : 10 frames
Codec ID : V_MPEG4/ISO/AVC
Duration : 1 h 29 min
Bit rate : 2 125 kb/s
Width : 1 024 pixels
Height : 576 pixels
Display aspect ratio : 16:9
Frame rate mode : Constant
Frame rate : 23.976 (24000/1001) FPS
Color space : YUV
Chroma subsampling : 4:2:0
Bit depth : 8 bits
Scan type : Progressive
Bits/(Pixel*Frame) : 0.150
Stream size : 1.30 GiB (90%)
Title : BDRIP-AVC_576p_Rip_by_-=DoMiNo=-
Writing library : x264 core 148 r2721M 72d53ab
Encoding settings : cabac=1 / ref=10 / deblock=1:-3:-3 / analyse=0x3:0x133 / me=umh / subme=10 / psy=1 / psy_rd=1.00:0.10 / mixed_ref=1 / me_range=32 / chroma_me=1 / trellis=2 / 8x8dct=1 / cqm=0 / deadzone=21,11 / fast_pskip=0 / chroma_qp_offset=-3 / threads=5 / lookahead_threads=1 / sliced_threads=0 / nr=0 / decimate=1 / interlaced=0 / bluray_compat=0 / constrained_intra=0 / bframes=9 / b_pyramid=2 / b_adapt=2 / b_bias=0 / direct=3 / weightb=1 / open_gop=0 / weightp=2 / keyint=230 / keyint_min=23 / scenecut=40 / intra_refresh=0 / rc=2pass / mbtree=0 / bitrate=2125 / ratetol=1.0 / qcomp=0.70 / qpmin=0 / qpmax=69 / qpstep=4 / cplxblur=20.0 / qblur=0.5 / ip_ratio=1.40 / pb_ratio=1.30 / aq=1:1.00
Language : English
Default : Yes
Forced : No
Color range : Limited
Color primaries : BT.709
Transfer characteristics : BT.709
Matrix coefficients : BT.709
DURATION : 01:29:38.373000000
Audio
ID : 2
Format : AC-3
Format/Info : Audio Coding 3
Mode extension : CM (complete main)
Format settings, Endianness : Big
Codec ID : A_AC3
Duration : 1 h 29 min
Bit rate mode : Constant
Bit rate : 192 kb/s
Channel(s) : 2 channels
Channel positions : Front: L R
Sampling rate : 48.0 kHz
Frame rate : 31.250 FPS (1536 spf)
Bit depth : 16 bits
Compression mode : Lossy
Stream size : 123 MiB (8%)
Title : P, MVO [R5]
Language : Russian
Default : Yes
Forced : No
DURATION : 01:29:35.808000000
Text #1
ID : 3
Format : UTF-8
Codec ID : S_TEXT/UTF8
Codec ID/Info : UTF-8 Plain Text
Title : RUS_R5
Language : Russian
Default : Yes
Forced : No
DURATION : 01:25:54.252000000
Text #2
ID : 4
Format : UTF-8
Codec ID : S_TEXT/UTF8
Codec ID/Info : UTF-8 Plain Text
Title : ENG
Language : English
Default : No
Forced : No
DURATION : 01:26:01.291000000
Menu
00:00:00.000 : :00:00:00.000
00:04:25.265 : :00:04:25.265
00:09:58.598 : :00:09:58.598
00:14:32.372 : :00:14:32.372
00:24:34.974 : :00:24:34.974
00:31:52.411 : :00:31:52.411
00:43:38.616 : :00:43:38.616
00:50:05.002 : :00:50:05.002
00:59:07.544 : :00:59:07.544
01:08:18.595 : :01:08:18.595
01:15:31.027 : :01:15:31.027
01:21:59.415 : :01:21:59.415
01:29:37.873 : :01:29:37.873


_________________
Проголосуй за трекер Открытый торрент трекер - RUS-MEDIA.ORG

Проголосуй Открытый торрент трекер - RUS-MEDIA.ORG


Вернуться к началу
 Профиль Отправить личное сообщение  
 
   Похожие торренты   Автор   Торрент   Размер 
В этой теме нет новых непрочитанных сообщений. Нацисты в центре Земли / Nazis at the Center of the Earth [фантастика, боевик, триллер, приключения, 2012] BDRip 720p, Mvo

salma3

50 | 6

3.93 ГБ

В этой теме нет новых непрочитанных сообщений. Нацисты в центре Земли / Nazis at the Center of the Earth [фантастика, боевик, триллер, приключения, 2012] BDRemux 1080p, Mvo

salma3

116 | 41

10.89 ГБ

В этой теме нет новых непрочитанных сообщений. Последний час Земли / Earth's Final Hours [фантастика, боевик, 2011] BDRip 720p, Mvo

salma3

71 | 34

4.88 ГБ

В этой теме нет новых непрочитанных сообщений. Человек с Земли / The Man from Earth [Фантастика, драма, 2007] BDRip 1080p, Mvo

salma3

0 | 8

8.28 ГБ

В этой теме нет новых непрочитанных сообщений. Человек с Земли: Голоцен / The Man from Earth: Holocene [Фантастика, драма, 2017] HDRip, Mvo [GreenРай Studio]

salma3

271 | 174

1.37 ГБ

В этой теме нет новых непрочитанных сообщений. Морской бой / Battleship [фантастика, боевик, триллер, приключения, 2012] BDRip-HEVC 1080p, Dub

salma3

123 | 42

5.98 ГБ

В этой теме нет новых непрочитанных сообщений. Мертвые земли / Wastelander [фантастика, боевик, приключения, 2018] WEBDLRip, Mvo

salma3

495 | 72

1.37 ГБ


Начать новую тему Ответить на тему  [ 1 сообщение ] 




Для Мосгорсуда, Роскомнадзора и рекламодателей:: mosgorsud-torrent[собачка]yandex.ru
cron