Торрент файл
скачать торрент магнет ссылка Добавлен: 10 ноя 2016, 00:57
Размер: 1.41 ГБ
Сидеров: 136
Личеров: 60
Статус: (salma3)
Автор

СообщениеДобавлено: 10 ноя 2016, 00:57 

Не в сети
Супермодератор
Аватара пользователя
Дата регистрации:
15 фев 2012, 16:44
Возраст: 28
Спасибо: 7163 / 2147
Сообщения: 61793
Перевод: Авторский (одноголосый закадровый) [В.Котов]
Cубтитры: Русские (Solod)
Формат: BDRip-AVC MKV, H.264, AC3
Страна: Канада
Режиссер: Стивен С. Миллер / Steven C. Miller
Жанр: боевик, триллер, криминал
Продолжительность: 01:47:07
Год выпуска: 2016

В ролях: Брюс Уиллис (Hubert), Кристофер Мелони (Montgomery), Дэйв Батиста (Stockwell), Эдриан Гренье (Wells), Лидия Халл (Agent Chase), Тайлер Джон Олсон (Derohan), Кристофер Роб Бауэн (Teegan), Ричи Чэнс (Dagley), Крис Хилл (James Jackson), Дэнни А. Абекейзер (Antonio Leon), Тексас Бэттл (T.J Jackson), Тара Холт (Vanessa Adler)

Описание:
История об агенте ФБР, который нападает на след преступников, ограбивших банк и отдавших все украденные деньги на благотворительные нужды. Чем дальше продвигается расследование, тем больше главный герой убеждается в том, что у владельца банка имеются собственные секреты.



Видео: 1012x424 (2.40:1), 23.976 fps, MPEG4 AVC (х264) , ~ 1504 kbps avg, 0.146 bit/pixel
Аудио: 48 kHz, AC3 Dolby Digital, 3/2 (L,C,R,l,r) + LFE ch, ~384 kbps avg


Общее
Уникальный идентификатор : 186066349757162675640140915589094323107 (0x8BFB13519C13B6D5A71ED8DEF32833A3)
Полное имя : E:\Закачка-2\Naletchiki.2016.RUS.BDRip.x264.-HELLYWOOD.mkv
Формат : Matroska
Версия формата : Version 4 / Version 2
Размер файла : 1,41 Гбайт
Продолжительность : 1 ч. 47 м.
Общий поток : 1886 Кбит/сек
Название фильма : Marauders (2016)
Дата кодирования : UTC 2016-10-17 20:23:00
Программа кодирования : mkvmerge v5.9.0 ('On The Loose') built on Dec 15 2012 16:39:58
Библиотека кодирования : libebml v1.3.0 + libmatroska v1.4.0

Видео
Идентификатор : 1
Формат : AVC
Формат/Информация : Advanced Video Codec
Профиль формата :
Параметр CABAC формата : Да
Параметр ReFrames формата : 12 кадров
Идентификатор кодека : V_MPEG4/ISO/AVC
Продолжительность : 1 ч. 47 м.
Битрейт : 1504 Кбит/сек
Ширина : 1012 пикселей
Высота : 424 пикселя
Соотношение сторон : 2,40:1
Режим частоты кадров : Постоянный
Частота кадров : 23,976 кадра/сек
Цветовое пространство : YUV
Субдискретизация насыщенности : 4:2:0
Битовая глубина : 8 бит
Тип развёртки : Прогрессивная
Бит/(Пиксели*Кадры) : 0.146
Размер потока : 1,10 Гбайт (78%)
Заголовок : potroks
Библиотека кодирования : x264 core 146 r2538 121396c
Настройки программы : cabac=1 / ref=12 / deblock=1:-2:-2 / analyse=0x3:0x113 / me=umh / subme=11 / psy=1 / psy_rd=1.05:0.10 / mixed_ref=1 / me_range=48 / chroma_me=1 / trellis=2 / 8x8dct=1 / cqm=0 / deadzone=21,11 / fast_pskip=0 / chroma_qp_offset=-3 / threads=9 / lookahead_threads=2 / sliced_threads=0 / nr=0 / decimate=0 / interlaced=0 / bluray_compat=0 / constrained_intra=0 / bframes=13 / b_pyramid=2 / b_adapt=2 / b_bias=0 / direct=3 / weightb=1 / open_gop=0 / weightp=2 / keyint=240 / keyint_min=23 / scenecut=40 / intra_refresh=0 / rc_lookahead=60 / rc=2pass / mbtree=0 / bitrate=1504 / ratetol=1.0 / qcomp=0.70 / qpmin=0 / qpmax=69 / qpstep=4 / cplxblur=20.0 / qblur=0.5 / vbv_maxrate=14000 / vbv_bufsize=14000 / nal_hrd=none / filler=0 / ip_ratio=1.40 / pb_ratio=1.30 / aq=1:0.80
Язык : English
Default : Да
Forced : Нет

Аудио
Идентификатор : 2
Формат : AC-3
Формат/Информация : Audio Coding 3
Расширение режима : CM (complete main)
Параметр Endianness формата : Big
Идентификатор кодека : A_AC3
Продолжительность : 1 ч. 47 м.
Вид битрейта : Постоянный
Битрейт : 384 Кбит/сек
Каналы : 6 каналов
Расположение каналов : Front: L C R, Side: L R, LFE
Частота : 48,0 КГц
Частота кадров : 31,250 кадров/сек (1536 spf)
Метод сжатия : С потерями
Размер потока : 294 Мбайт (20%)
Заголовок : AVO | DD 5.1 @ 384 kbps - V.Kotov
Язык : Russian
Default : Да
Forced : Нет

Текст
Идентификатор : 3
Формат : UTF-8
Идентификатор кодека : S_TEXT/UTF8
Идентификатор кодека/Информация : UTF-8 Plain Text
Заголовок : Translation - Solod
Язык : Russian
Default : Нет
Forced : Нет

Меню
00:00:00.000 : en:00:00:00.000
00:05:19.402 : en:00:05:19.402
00:11:57.717 : en:00:11:57.717
00:17:46.107 : en:00:17:46.107
00:24:42.648 : en:00:24:42.648
00:30:33.874 : en:00:30:33.874
00:39:07.679 : en:00:39:07.679
00:46:14.981 : en:00:46:14.981
00:51:49.356 : en:00:51:49.356
00:55:58.272 : en:00:55:58.272
01:02:08.016 : en:01:02:08.016
01:09:21.699 : en:01:09:21.699
01:16:38.594 : en:01:16:38.594
01:22:48.839 : en:01:22:48.839
01:28:22.172 : en:01:28:22.172
01:34:08.351 : en:01:34:08.351




_________________
Проголосуй за трекер Открытый торрент трекер - RUS-MEDIA.ORG

Проголосуй Открытый торрент трекер - RUS-MEDIA.ORG


Вернуться к началу
 Профиль Отправить личное сообщение  
 
   Похожие торренты   Автор   Торрент   Размер 
В этой теме нет новых непрочитанных сообщений. Налетчики / Marauders [боевик, триллер, криминал, 2016] BDRip-AVC, Avo

salma3

191 | 28

2.13 ГБ

В этой теме нет новых непрочитанных сообщений. Налётчики / Marauders [боевик, 2016] BDRip 1080p. Mvo

salma3

74 | 6

8.96 ГБ

В этой теме нет новых непрочитанных сообщений. Налетчики / Marauders [Боевик, 2016] BDRip, Dub [iTunes ]

salma3

403 | 58

1.41 ГБ

В этой теме нет новых непрочитанных сообщений. Налётчики / Marauders [боевик, 2016] WEB-DL 1080p. Mvo

salma3

61 | 6

3.84 ГБ

В этой теме нет новых непрочитанных сообщений. Мальчики-налетчики / Takers [Боевик, криминал, 2010] HDRip, Dub [КПК]

salma3

0 | 0

357.43 МБ

В этой теме нет новых непрочитанных сообщений. Налётчики из Голливуда / Hollywood Flies [боевик, криминал, 2004] DVDRip, Dvo

salma3

39 | 3

1.46 ГБ

В этой теме нет новых непрочитанных сообщений. Расплата / The Accountant [2016] ( Гэвин О’Коннор) [2016, Боевик, триллер, драма, криминал , BDRip 400p] [DD5.1] [Dub Rus, Englis + Subs Rus, ENG] [ iTunes]

Враг Нароода

2 | 2

5.27 ГБ


Начать новую тему Ответить на тему  [ 1 сообщение ] 




Для Мосгорсуда, Роскомнадзора и рекламодателей:: mosgorsud-torrent[собачка]yandex.ru
cron