Торрент файл
скачать торрент магнет ссылка Добавлен: 06 ноя 2016, 21:06
Размер: 1.45 ГБ
Сидеров: 118
Личеров: 33
Статус: (salma3)
Автор

СообщениеДобавлено: 06 ноя 2016, 21:06 

В сети
Супермодератор
Аватара пользователя
Дата регистрации:
15 фев 2012, 16:44
Возраст: 28
Спасибо: 7061 / 2147
Сообщения: 59192
Год выпуска: 2014
Жанр: драма, криминал
Режиссер: Эрик Барбье

В ролях: Иван Атталь, Беренис Бежо, Жан-Франсуа Стевенен, Антуан Баслер, Жак Списсер, Анни Корди, Мишель Израэль, Шарли Дюпон, Дэниэль Дени, Гене Бервутс

Описание: Бывший заключенный, втирается в доверие к дочери покойного эксперта-ювелира с целью выкрасть «Флорентийца», один из крупнейших в мире бриллиантов. Добившись своего и заменив драгоценность фальшивкой, мошенник передает бриллиант подельникам, которые тотчас же пытаются его убить. Потеряв в одночасье бриллиант и друзей-предателей, герой пытается удержать самое дорогое, что осталось в его жизни — полюбившую его девушку.



Страна: Франция, Люксембург, Бельгия
Продолжительность: 01:48:51
Перевод: Профессиональный (многоголосый закадровый)

Качество видео: HDRip-AVC
Формат видео: MPEG-4
Видео: 1024x432 (2.40:1), 24.000 fps, AVC MPEG-4 (H.264), ~1488 kbps, 0.140 bit/pixel
Аудио: 48 kHz, AC3 Dolby Digital, 3/2 (L,C,R,l,r) + LFE ch, ~384 kbps

General
Unique ID : 168348648403719580577546155723716462494 (0x7EA6C532C2870C1E037BA147C20E879E)
Complete name : C:\Users\Юрик\Downloads\Poslednij.Brilliant.2014_[tfile.ru].mkv
Format : Matroska
Format version : Version 2
File size : 1.45 GiB
Duration : 1h 48mn
Overall bit rate : 1 910 Kbps
Writing application : Lavf51.12.1
Writing library : Lavf51.12.1

Video
ID : 1
Format : AVC
Format/Info : Advanced Video Codec
Format profile :
Format settings, CABAC : No
Format settings, ReFrames : 1 frame
Format settings, GOP : M=1, N=12
Codec ID : V_MPEG4/ISO/AVC
Duration : 1h 48mn
Bit rate : 1 488 Kbps
Width : 1 024 pixels
Height : 432 pixels
Display aspect ratio : 2.40:1
Frame rate mode : Constant
Frame rate : 24.000 fps
Color space : YUV
Chroma subsampling : 4:2:0
Bit depth : 8 bits
Scan type : Progressive
Bits/(Pixel*Frame) : 0.140
Stream size : 1.13 GiB (78%)
Default : Yes
Forced : No

Audio
ID : 2
Format : AC-3
Format/Info : Audio Coding 3
Mode extension : CM (complete main)
Format settings, Endianness : Big
Codec ID : A_AC3
Duration : 1h 48mn
Bit rate mode : Constant
Bit rate : 384 Kbps
Channel(s) : 6 channels
Channel positions : Front: L C R, Side: L R, LFE
Sampling rate : 48.0 KHz
Bit depth : 32 bits
Compression mode : Lossy
Stream size : 299 MiB (20%)
Default : Yes
Forced : No




_________________
Проголосуй за трекер Открытый торрент трекер - RUS-MEDIA.ORG

Проголосуй Открытый торрент трекер - RUS-MEDIA.ORG


Вернуться к началу
 Профиль Отправить личное сообщение  
 
   Похожие торренты   Автор   Торрент   Размер 
В этой теме нет новых непрочитанных сообщений. Последнее метро / Le dernier metro [Драма, мелодрама, военный, 1980] HDRip, Mvo

salma3

13 | 1

1.37 ГБ

В этой теме нет новых непрочитанных сообщений. Последний из достойнейших / The Last of the Finest [боевик, драма, криминал, 1990] HDRip, Dub

salma3

14 | 0

1.44 ГБ

В этой теме нет новых непрочитанных сообщений. Бандиты в масках / Le dernier gang [Криминал, 2007] ВDRip 720р, Mvo+Sub

salma3

67 | 16

4.26 ГБ

В этой теме нет новых непрочитанных сообщений. Последнее известное место жительства / Dernier domicile connu [триллер, криминал, 1969] DVDRip, Mvo

salma3

1 | 15

1.46 ГБ

В этой теме нет новых непрочитанных сообщений. Последний день [01-04 из 04] (Ким Дружинин) [Криминал, остросюжетный, 2014] HDTVRip

Dracon

679 | 30

2.15 ГБ

В этой теме нет новых непрочитанных сообщений. Последний день [01-04 из 04] (Ким Дружинин) [Криминал, остросюжетный, 2014] HDTVRip 720p

Dracon

42 | 4

7.4 ГБ

В этой теме нет новых непрочитанных сообщений. Последний день [01-04 из 04] (Ким Дружинин) [Криминал, остросюжетный фильм, 2014] HDTV 1080i

Dracon

23 | 6

9.63 ГБ


Начать новую тему Ответить на тему  [ 1 сообщение ] 




Для Мосгорсуда, Роскомнадзора и рекламодателей:: mosgorsud-torrent[собачка]yandex.ru
cron