Торрент файл
скачать торрент магнет ссылка Добавлен: 05 ноя 2016, 13:51
Размер: 1.41 ГБ
Сидеров: 38
Личеров: 15
Статус: (salma3)
Автор

СообщениеДобавлено: 05 ноя 2016, 13:51 

Не в сети
Супермодератор
Аватара пользователя
Дата регистрации:
15 фев 2012, 16:44
Возраст: 29
Спасибо: 7331 / 2147
Сообщения: 73810
Год выхода: 1993
Жанр: драма
Режиссер: Джон Шлезингер

В ролях: Энтони Хопкинс, Изабелла Росселлини, Кэмпбелл Скотт, Харт Бокнер, Рональд Ничке, Джеймс Грант, Джереми Синден, Ричард Дерден, Кори Джонсон, Ричард Гуд

О фильме:
По роману Йена Макьюэна.
В этом драматическом триллере действие происходит в Германии после Второй мировой войны. Молодой англичанин Леонард занят в секретной операции по прослушиванию телефонных разговоров в советской зоне. Он знакомится с молодой немкой Марией, и они влюбляются друг в друга. Но у нее оказался муж, негодяй и пьяница, который не давал ей развод, вымогал деньги и избивал. Застав их вдвоем, он затеял драку, и был случайно убит Марией...



Страна: Германия, Великобритания
Продолжительность: 01:53:57.840
Перевод: Профессиональный (двухголосый закадровый) Кинопоказ/НТВ+

Файл
Кодек: h.264
Качество: IPTVRip-AVC Кинопоказ
Видео: 712x560 (16:9) @ 1010x560, 25.000 fps, AVC, ~1577 Kbps, 0.158 bits/pixel
Звук: Русский, 48.0 KHz, MP2, 2 ch, 192 Kbps
Субтитры: нет
Общее
Уникальный идентификатор : 181405137748010456193213349365225352079 (0x88795BD2CF69A70896D7C0C030B3EB8F)
Полное имя : E:FILMSNevinovniy.1993.IPTVRip-AVC.mkv
Формат : Matroska
Версия формата : Version 4 / Version 2
Размер файла : 1,41 Гбайт
Продолжительность : 1 ч. 53 м.
Общий поток : 1770 Кбит/сек
Дата кодирования : UTC 2016-10-30 09:22:35
Программа кодирования : mkvmerge v9.5.0 ('Quiet Fire') 64bit
Библиотека кодирования : libebml v1.3.4 + libmatroska v1.4.5
Видео
Идентификатор : 1
Формат : AVC
Формат/Информация : Advanced Video Codec
Профиль формата : High@L4.1
Параметр CABAC формата : Да
Параметр ReFrames формата : 11 кадров
Идентификатор кодека : V_MPEG4/ISO/AVC
Продолжительность : 1 ч. 53 м.
Битрейт : 1577 Кбит/сек
Ширина : 712 пикселей
Высота : 560 пикселей
Соотношение сторон : 16:9
Соотношение сторон в оригинале : 16:9
Режим частоты кадров : Постоянный
Частота кадров : 25,000 кадров/сек
Цветовое пространство : YUV
Субдискретизация насыщенности : 4:2:0
Битовая глубина : 8 бит
Тип развёртки : Прогрессивная
Бит/(Пиксели*Кадры) : 0.158
Размер потока : 1,26 Гбайт (89%)
Библиотека кодирования : x264 core 148 r2638 7599210
Настройки программы : cabac=1 / ref=11 / deblock=1:0:0 / analyse=0x3:0x133 / me=umh / subme=11 / psy=1 / psy_rd=1.10:0.15 / mixed_ref=1 / me_range=48 / chroma_me=1 / trellis=2 / 8x8dct=1 / cqm=0 / deadzone=21,11 / fast_pskip=0 / chroma_qp_offset=-3 / threads=8 / lookahead_threads=2 / sliced_threads=0 / nr=0 / decimate=0 / interlaced=0 / bluray_compat=0 / constrained_intra=0 / bframes=10 / b_pyramid=2 / b_adapt=2 / b_bias=0 / direct=3 / weightb=1 / open_gop=0 / weightp=2 / keyint=250 / keyint_min=25 / scenecut=40 / intra_refresh=0 / rc_lookahead=60 / rc=2pass / mbtree=0 / bitrate=1577 / ratetol=1.0 / qcomp=0.60 / qpmin=0 / qpmax=69 / qpstep=4 / cplxblur=20.0 / qblur=0.5 / vbv_maxrate=40000 / vbv_bufsize=50000 / nal_hrd=none / filler=0 / ip_ratio=1.40 / pb_ratio=1.30 / aq=1:1.00
Default : Нет
Forced : Нет
Цветовой диапазон : Limited
Коэффициенты матрицы : BT.601
Аудио
Идентификатор : 2
Формат : MPEG Audio
Версия формата : Version 1
Профиль формата : Layer 2
Идентификатор кодека : A_MPEG/L2
Идентификатор кодека/Подсказка : MP2
Продолжительность : 1 ч. 53 м.
Вид битрейта : Постоянный
Битрейт : 192 Кбит/сек
Каналы : 2 канала
Частота : 48,0 КГц
Частота кадров : 41,667 кадра/сек (1152 spf)
Метод сжатия : С потерями
Размер потока : 156 Мбайт (11%)
Язык : Russian
Default : Да
Forced : Нет

Релиз от: Temperest


_________________
Проголосуй за трекер Открытый торрент трекер - RUS-MEDIA.ORG

Проголосуй Открытый торрент трекер - RUS-MEDIA.ORG


Вернуться к началу
 Профиль Отправить личное сообщение  
 
   Похожие торренты   Автор   Торрент   Размер 
В этой теме нет новых непрочитанных сообщений. Невиновный / Innocent [S01] [Драма, 2018] WEB-DLRip, Mvo [BaibaKo]

salma3

0 | 0

2.49 ГБ

В этой теме нет новых непрочитанных сообщений. Невиновный / Innocent [S01] [Драма, 2018] WEB-DLRip 1080p, Mvo [BaibaKo]

salma3

0 | 0

8.23 ГБ

В этой теме нет новых непрочитанных сообщений. Невиновный / Innocent [S01] [Драма, 2018] WEB-DLRip 720p, Mvo [BaibaKo]

salma3

0 | 0

6.42 ГБ

В этой теме нет новых непрочитанных сообщений. Slutty Times At Innocent High 6 /Забавы Времен Невинного Состояния 6 (Innocent High) [2015 г., DVDRip]

max77777

1 | 0

1.47 ГБ

В этой теме нет новых непрочитанных сообщений. Сон младенца / The Innocent Sleep [триллер, драма, криминал, 1996] DVDRip, Dvo

salma3

22 | 4

1.46 ГБ

В этой теме нет новых непрочитанных сообщений. Презумпция невиновности / Presumed Innocent [Триллер, драма, криминал, детектив, 1990] BDRemux 1080p, Dub

salma3

25 | 9

17.48 ГБ

В этой теме нет новых непрочитанных сообщений. Презумпция невиновности / Presumed Innocent [Триллер, драма, криминал, детектив, 1990] BDRip 720p, Dub+Avo

salma3

21 | 3

4.88 ГБ


Начать новую тему Ответить на тему  [ 1 сообщение ] 




Для Мосгорсуда, Роскомнадзора и рекламодателей:: mosgorsud-torrent[собачка]yandex.ru
cron