Торрент файл
скачать торрент магнет ссылка Добавлен: 04 ноя 2016, 02:28
Размер: 2.19 ГБ
Сидеров: 142
Личеров: 14
Автор

СообщениеДобавлено: 04 ноя 2016, 02:28 

Не в сети
Дата регистрации:
28 сен 2016, 18:10
Спасибо: 216 / 0
Сообщения: 1996
«Кого ты позовёшь на помощь?»
Информация о фильме
Название: Охотники за привидениями
Оригинальное название: Ghostbusters
Год выхода: 2016
Жанр: Фантастика, фэнтези, боевик, комедия
Режиссер: Пол Фиг
В ролях: Мелисса МакКарти, Кристен Уиг, Кейт МакКиннон, Лесли Джонс, Крис Хемсворт, Сесили Стронг, Энди Гарсиа, Нил Кэйси, Чарльз Дэнс, Майкл Кеннет Уильямс
О фильме:
Тридцать лет назад охотники за привидениями спасли Нью-Йорк от нашествия призраков, но теперь городу вновь угрожает опасность. Былые герои не могут стать на его защиту, но находятся и другие отважные люди, всю свою жизнь посвятившие изучению паранормальных явлений. Эбби Йейтс объединяется с Эрин Гилберт, пожалуй лучшим специалистом в квантовой физике, и вместе они собирают команду новых охотников за привидениями, в которую принимают отличного инженера Джиллиан Хольцман, сотрудницу метрополитена Пэтти Толан, знающую город как свои пять пальцев, и секретаря — настоящего красавчика Кэвина. Вместе они начинают борьбу с нечистой силой, терроризирующей мегаполис…

Страна: США, Австралия
Студия: Columbia Pictures, Feigco Entertainment, Ghostcorps, LStar Capital, Pascal Pictures, The Montecito Picture Company, Village Roadshow Pictures
Продолжительность: 01:56:39
Перевод: Профессиональный (полное дублирование)[BD CEE]
Файл
Качество: BDRip-AVC (исходник - BDRemux|GHOSTBUSTERS_2016_TC_REMUX_HDCLUB)
Кодек: x264
Видео: 862x360 (2.40:1), 23.976 fps, MPEG-4 AVC ~1870 Кbps avg, 0.251 bit/pixel
Аудио: AC3, 48 kHz, 6 ch, ~384.00 kbps avg | русский | Профессиональный (полное дублирование)[BD CEE]
Аудио: AC3, 48 kHz, 6 ch, ~384.00 kbps avg | английский | Оригинал
Субтитры: Русские, английские
Семпл
Общее
Уникальный идентификатор : 171968349368529795442660190449490706845 (0x815FE63C09198BCFA68D33D11887C19D)
Полное имя : Ghostbusters.(2016).BDRip.x264.AFM.mkv
Формат : Matroska
Версия формата : Version 4 / Version 2
Размер файла : 2,19 Гбайт
Продолжительность : 1 ч. 56 м.
Общий поток : 2692 Кбит/сек
Название фильма : Охотники за привидениями / Ghostbusters (2016) :: AFM ::
Дата кодирования : UTC 2016-11-01 20:05:10
Программа кодирования : mkvmerge v8.3.0 ('Over the Horizon') 32bit
Библиотека кодирования : libebml v1.3.1 + libmatroska v1.4.2
Видео
Идентификатор : 1
Формат : AVC
Формат/Информация : Advanced Video Codec
Профиль формата : High@L4.1
Параметр CABAC формата : Да
Параметр ReFrames формата : 10 кадров
Идентификатор кодека : V_MPEG4/ISO/AVC
Продолжительность : 1 ч. 56 м.
Битрейт : 1870 Кбит/сек
Ширина : 862 пикселя
Высота : 360 пикселей
Соотношение сторон : 2,40:1
Режим частоты кадров : Постоянный
Частота кадров : 23,976 кадра/сек
Цветовое пространство : YUV
Субдискретизация насыщенности : 4:2:0
Битовая глубина : 8 бит
Тип развёртки : Прогрессивная
Бит/(Пиксели*Кадры) : 0.251
Размер потока : 1,52 Гбайт (69%)
Заголовок : BDRip by AFM
Библиотека кодирования : x264 core 148 r2721+55 e19946b t_mod_Custom [8-bit@all X86_64]
Настройки программы : cabac=1 / ref=10 / deblock=1:-2:-2 / analyse=0x3:0x113 / me=umh / subme=10 / psy=1 / fade_compensate=0.00 / psy_rd=1.00:0.00 / mixed_ref=1 / me_range=32 / chroma_me=1 / trellis=2 / 8x8dct=1 / cqm=0 / deadzone=21,11 / fast_pskip=0 / chroma_qp_offset=-2 / threads=6 / lookahead_threads=1 / sliced_threads=0 / nr=0 / decimate=1 / interlaced=0 / bluray_compat=0 / constrained_intra=0 / fgo=0 / bframes=12 / b_pyramid=2 / b_adapt=2 / b_bias=0 / direct=1 / weightb=1 / open_gop=0 / weightp=2 / keyint=240 / keyint_min=23 / scenecut=40 / intra_refresh=0 / rc_lookahead=40 / rc=crf / mbtree=0 / crf=17.3000 / qcomp=0.65 / qpmin=0:0:0 / qpmax=69:69:69 / qpstep=4 / vbv_maxrate=50000 / vbv_bufsize=62500 / crf_max=0.0 / nal_hrd=none / filler=0 / ip_ratio=1.35 / pb_ratio=1.30 / aq=3:0.80 / aq-sensitivity=10.00 / aq-factor=1.00:1.00:1.00 / aq2=0 / aq3=0
Язык : English
Default : Да
Forced : Нет
Аудио #1
Идентификатор : 2
Формат : AC-3
Формат/Информация : Audio Coding 3
Расширение режима : CM (complete main)
Параметр Endianness формата : Big
Идентификатор кодека : A_AC3
Продолжительность : 1 ч. 56 м.
Вид битрейта : Постоянный
Битрейт : 384 Кбит/сек
Каналы : 6 каналов
Расположение каналов : Front: L C R, Side: L R, LFE
Частота : 48,0 КГц
Метод сжатия : С потерями
Размер потока : 320 Мбайт (14%)
Заголовок : Dub, AC3 5.1 ~384 kbps
Язык : Russian
Default : Да
Forced : Нет
Аудио #2
Идентификатор : 3
Формат : AC-3
Формат/Информация : Audio Coding 3
Расширение режима : CM (complete main)
Параметр Endianness формата : Big
Идентификатор кодека : A_AC3
Продолжительность : 1 ч. 56 м.
Вид битрейта : Постоянный
Битрейт : 384 Кбит/сек
Каналы : 6 каналов
Расположение каналов : Front: L C R, Side: L R, LFE
Частота : 48,0 КГц
Метод сжатия : С потерями
Размер потока : 320 Мбайт (14%)
Заголовок : Original, AC3 5.1 ~384 kbps
Язык : English
Default : Нет
Forced : Нет
Текст #1
Идентификатор : 4
Формат : UTF-8
Идентификатор кодека : S_TEXT/UTF8
Идентификатор кодека/Информация : UTF-8 Plain Text
Заголовок : forced
Язык : Russian
Default : Да
Forced : Нет
Текст #2
Идентификатор : 5
Формат : UTF-8
Идентификатор кодека : S_TEXT/UTF8
Идентификатор кодека/Информация : UTF-8 Plain Text
Язык : Russian
Default : Нет
Forced : Нет
Текст #3
Идентификатор : 6
Формат : UTF-8
Идентификатор кодека : S_TEXT/UTF8
Идентификатор кодека/Информация : UTF-8 Plain Text
Язык : English
Default : Нет
Forced : Нет
Меню
00:00:00.000 : Chapter 01
00:08:24.295 : Chapter 02
00:15:21.754 : Chapter 03
00:19:59.240 : Chapter 04
00:25:27.901 : Chapter 05
00:33:55.950 : Chapter 06
00:39:04.133 : Chapter 07
00:45:24.305 : Chapter 08
00:51:51.108 : Chapter 09
00:56:33.348 : Chapter 10
01:01:52.417 : Chapter 11
01:07:04.103 : Chapter 12
01:15:43.288 : Chapter 13
01:23:30.338 : Chapter 14
01:32:41.639 : Chapter 15
01:42:49.580 : Chapter 16



Вернуться к началу
 Профиль Отправить личное сообщение  
 
   Похожие торренты   Автор   Торрент   Размер 
В этой теме нет новых непрочитанных сообщений. Охотники за привидениями / Ghostbusters (Фантастика, фэнтези, боевик, комедия, 2016) BDRip 1080p | Theatrical Cut | 3D-Video | HSBS | Лицензия

marya111

238 | 39

13.17 ГБ

В этой теме нет новых непрочитанных сообщений. Охотники за привидениями / Ghostbusters (фантастика, фэнтези, боевик, комедия, 2016) BDRip-AVC от HELLYWOOD | Расширенная версия | Лицензия

marya111

165 | 10

1.93 ГБ

В этой теме нет новых непрочитанных сообщений. Охотники за привидениями / Ghostbusters [IMAX] (фантастика, фэнтези, боевик, комедия, 2016) BDRip от HQCLUB | Extended Cut | Лицензия

marya111

252 | 28

2.18 ГБ

В этой теме нет новых непрочитанных сообщений. Охотники за привидениями / Ghostbusters [фантастика, комедия, 2016] BDRip 1080p HEVC, Dub [Theatrical Cut] [3D-Video]

salma3

20 | 38

8.59 ГБ

В этой теме нет новых непрочитанных сообщений. Охотники за привидениями / Ghostbusters (2016) BDRip 1080p | Theatrical Cut | Лицензия

marya111

185 | 31

12.77 ГБ

В этой теме нет новых непрочитанных сообщений. Охотники за привидениями / Ghostbusters [фантастика, фэнтези, боевик, комедия, 2016] BDRip, Dub [iTunes]

marya111

404 | 19

1.41 ГБ

В этой теме нет новых непрочитанных сообщений. Охотники за привидениями / Ghostbusters [фантастика, фэнтези, боевик, комедия, 2016] BDRip 1080p, Dub [iTunes]

salma3

1138 | 430

11.76 ГБ


Начать новую тему Ответить на тему  [ 1 сообщение ] 




Для Мосгорсуда, Роскомнадзора и рекламодателей:: mosgorsud-torrent[собачка]yandex.ru
cron