Торрент файл
скачать торрент магнет ссылка Добавлен: 03 ноя 2016, 13:26
Размер: 2.66 ГБ
Сидеров: 255
Личеров: 72
Статус: (salma3)
Автор

СообщениеДобавлено: 03 ноя 2016, 13:26 

Не в сети
Супермодератор
Аватара пользователя
Дата регистрации:
15 фев 2012, 16:44
Возраст: 28
Спасибо: 7285 / 2147
Сообщения: 70259
Год выпуска: 2016
Жанр: Фантастика, боевик, триллер, приключения
Выпущено: США
Режиссер: Джастин Лин

В ролях: Крис Пайн, Закари Куинто, Саймон Пегг, Карл Урбан, Зои Салдана, Джон Чо, Антон Ельчин, Идрис Эльба, София Бутелла, Джо Таслим

О фильме: Через два года после начала очередной космической миссии команда «Энтерпрайза» сталкивается с испытанием, перед которым меркнут все предыдущие приключения отважного экипажа. После атаки неопознанных врагов корабль терпит бедствие на таинственной, затерянной в глубинах пространства планете. Оказавшись на краю Вселенной, лишенные помощи Федерации, капитан Кирк и его товарищи узнают о существовании чудовищного оружия, угрожающего обитаемым планетным системам.



Файл
Качество: HDRip (AVC)
Видео: MPEG-4 AVC, 2171 Кбит/с, 1024x428, 23.976 кадр/с
Аудио: Русский, английский (AC3, 6 ch, 448 Кбит/с)
Размер: 2.66 ГБ
Продолжительность: 02:02:21
Перевод: Дублированный
Субтитры: Русские, английские
Сохранены оригинальные чаптеры.
Озвучивание - Дублированное (Лицензия)
x264 [info]: frame I:1362 Avg QP:14.31 size: 69170
x264 [info]: frame P:50067 Avg QP:17.70 size: 21059
x264 [info]: frame B:124606 Avg QP:19.04 size: 7085
x264 [info]: consecutive B-frames: 5.8% 6.2% 12.5% 41.1% 9.7% 18.6% 2.0% 3.3% 0.2% 0.1% 0.4%
x264 [info]: mb I I16..4: 13.5% 66.5% 20.0%
x264 [info]: mb P I16..4: 1.4% 15.5% 1.9% P16..4: 28.7% 34.3% 11.3% 2.0% 0.2% skip: 4.6%
x264 [info]: mb B I16..4: 0.2% 1.6% 0.2% B16..8: 35.9% 23.4% 3.7% direct: 5.8% skip:29.2% L0:40.6% L1:46.6% BI:12.8%
x264 [info]: 8x8 transform intra:80.3% inter:58.8%
x264 [info]: direct mvs spatial:95.3% temporal:4.7%
x264 [info]: coded y,uvDC,uvAC intra: 86.0% 80.2% 58.8% inter: 25.6% 27.1% 13.1%
x264 [info]: i16 v,h,dc,p: 18% 14% 11% 58%
x264 [info]: i8 v,h,dc,ddl,ddr,vr,hd,vl,hu: 8% 8% 8% 10% 13% 12% 14% 12% 16%
x264 [info]: i4 v,h,dc,ddl,ddr,vr,hd,vl,hu: 10% 9% 7% 9% 14% 12% 14% 10% 14%
x264 [info]: i8c dc,h,v,p: 41% 27% 16% 16%
x264 [info]: Weighted P-Frames: Y:5.2% UV:2.6%
x264 [info]: ref P L0: 51.2% 10.8% 16.1% 5.8% 4.6% 3.0% 2.7% 1.8% 2.0% 1.5% 0.4% 0.0%
x264 [info]: ref B L0: 77.0% 11.2% 4.6% 2.3% 1.7% 1.2% 1.0% 0.6% 0.4%
x264 [info]: ref B L1: 94.2% 5.8%
x264 [info]: kb/s:2213.42
Общее
Уникальный идентификатор : 199782482407966416957401272828014918997 (0x964CB4DEB6E222DCB7C0D53036AC7D55)
Полное имя : D:ЗагрузкиStar.Trek.Beyond.2016.x264.HDRip.(AVC).ExKinoRay.mkv
Формат : Matroska
Версия формата : Version 2
Размер файла : 2,66 Гбайт
Продолжительность : 2 ч. 2 м.
Общий поток : 3112 Кбит/сек
Название фильма : Стартрек: Бесконечность.2016.Rip by: ollan
Дата кодирования : UTC 2016-11-02 18:52:47
Программа кодирования : mkvmerge v5.6.0 ('Kenya Kane') built on May 27 2012 16:44:04
Библиотека кодирования : libebml v1.2.3 + libmatroska v1.3.0
Attachements : Cover - Star.Trek.Beyond.png
Видео
Идентификатор : 1
Формат : AVC
Формат/Информация : Advanced Video Codec
Профиль формата : High@L4.1
Параметр CABAC формата : Да
Параметр ReFrames формата : 10 кадров
Идентификатор кодека : V_MPEG4/ISO/AVC
Продолжительность : 2 ч. 2 м.
Битрейт : 2213 Кбит/сек
Ширина : 1024 пикселя
Высота : 428 пикселей
Соотношение сторон : 2,40:1
Режим частоты кадров : Постоянный
Частота кадров : 23,976 (24000/1001) кадра/сек
Цветовое пространство : YUV
Субдискретизация насыщенности : 4:2:0
Битовая глубина : 8 бит
Тип развёртки : Прогрессивная
Бит/(Пиксели*Кадры) : 0.211
Размер потока : 1,84 Гбайт (69%)
Библиотека кодирования : x264 core 146 r2538 121396c
Настройки программы : cabac=1 / ref=10 / deblock=1:-3:-3 / analyse=0x3:0x133 / me=umh / subme=11 / psy=1 / psy_rd=1.00:0.06 / mixed_ref=1 / me_range=48 / chroma_me=1 / trellis=2 / 8x8dct=1 / cqm=0 / deadzone=21,11 / fast_pskip=0 / chroma_qp_offset=-3 / threads=12 / lookahead_threads=3 / sliced_threads=0 / nr=0 / decimate=0 / interlaced=0 / bluray_compat=0 / constrained_intra=0 / bframes=10 / b_pyramid=2 / b_adapt=2 / b_bias=0 / direct=3 / weightb=1 / open_gop=0 / weightp=2 / keyint=240 / keyint_min=23 / scenecut=40 / intra_refresh=0 / rc_lookahead=40 / rc=2pass / mbtree=0 / bitrate=2213 / ratetol=1.0 / qcomp=0.60 / qpmin=0 / qpmax=69 / qpstep=4 / cplxblur=20.0 / qblur=0.5 / vbv_maxrate=50000 / vbv_bufsize=62500 / nal_hrd=none / filler=0 / ip_ratio=1.40 / pb_ratio=1.30 / aq=1:1.00
Язык : English
Default : Да
Forced : Нет
Аудио #1
Идентификатор : 2
Формат : AC-3
Формат/Информация : Audio Coding 3
Расширение режима : CM (complete main)
Параметр Endianness формата : Big
Идентификатор кодека : A_AC3
Продолжительность : 2 ч. 2 м.
Вид битрейта : Постоянный
Битрейт : 448 Кбит/сек
Каналы : 6 каналов
Расположение каналов : Front: L C R, Side: L R, LFE
Частота : 48,0 КГц
Частота кадров : 31,250 кадров/сек (1536 spf)
Метод сжатия : С потерями
Размер потока : 392 Мбайт (14%)
Заголовок : Дублированный (Лицензия)
Язык : Russian
Default : Да
Forced : Нет
Аудио #2
Идентификатор : 3
Формат : AC-3
Формат/Информация : Audio Coding 3
Расширение режима : CM (complete main)
Параметр Endianness формата : Big
Идентификатор кодека : A_AC3
Продолжительность : 2 ч. 2 м.
Вид битрейта : Постоянный
Битрейт : 448 Кбит/сек
Каналы : 6 каналов
Расположение каналов : Front: L C R, Side: L R, LFE
Частота : 48,0 КГц
Частота кадров : 31,250 кадров/сек (1536 spf)
Метод сжатия : С потерями
Размер потока : 392 Мбайт (14%)
Язык : English
Default : Нет
Forced : Нет
Текст #1
Идентификатор : 4
Формат : UTF-8
Идентификатор кодека : S_TEXT/UTF8
Идентификатор кодека/Информация : UTF-8 Plain Text
Заголовок : Forced
Язык : Russian
Default : Да
Forced : Нет
Текст #2
Идентификатор : 5
Формат : UTF-8
Идентификатор кодека : S_TEXT/UTF8
Идентификатор кодека/Информация : UTF-8 Plain Text
Заголовок : Full
Язык : Russian
Default : Нет
Forced : Нет
Текст #3
Идентификатор : 6
Формат : UTF-8
Идентификатор кодека : S_TEXT/UTF8
Идентификатор кодека/Информация : UTF-8 Plain Text
Заголовок : Forced
Язык : English
Default : Нет
Forced : Нет
Меню
00:00:00.000 : en:Chapter 01
00:08:25.000 : en:Chapter 02
00:16:10.000 : en:Chapter 03
00:32:37.000 : en:Chapter 04
00:42:15.000 : en:Chapter 05
00:52:21.000 : en:Chapter 06
00:59:49.000 : en:Chapter 07
01:12:04.000 : en:Chapter 08
01:22:33.000 : en:Chapter 09
01:33:00.000 : en:Chapter 10
01:40:32.000 : en:Chapter 11
01:47:38.000 : en:Chapter 12
01:52:31.000 : en:Chapter 13
01:55:40.000 : en:Chapter 14




Релиз от: Rip by:


_________________
Проголосуй за трекер Открытый торрент трекер - RUS-MEDIA.ORG

Проголосуй Открытый торрент трекер - RUS-MEDIA.ORG


Вернуться к началу
 Профиль Отправить личное сообщение  
 
   Похожие торренты   Автор   Торрент   Размер 
В этой теме нет новых непрочитанных сообщений. Стартрек: Бесконечность / Star Trek Beyond [фантастика, боевик, триллер, приключения, 2016] HDRip, Dub [лицензия]

salma3

278 | 87

2.18 ГБ

В этой теме нет новых непрочитанных сообщений. Стартрек: Бесконечность / Star Trek Beyond [фантастика, боевик, триллер, приключения, 2016] HDRip, Dub [лицензия]

salma3

761 | 111

1.46 ГБ

В этой теме нет новых непрочитанных сообщений. Стартрек: Бесконечность / Star Trek Beyond [Фантастика, боевик, триллер, приключения, 2016] Blu-Ray CEE 1080p, Dub [лицензия]

salma3

50 | 138

43.89 ГБ

В этой теме нет новых непрочитанных сообщений. Стартрек: Бесконечность / Star Trek Beyond (фантастика, боевик, триллер, приключения, 2016) BDRip-AVC | Лицензия

marya111

0 | 0

745.25 МБ

В этой теме нет новых непрочитанных сообщений. Стартрек: Бесконечность / Star Trek Beyond [фантастика, боевик, триллер, приключения, 2016] BDRip 720p, Dub [лицензия]

salma3

495 | 104

5.4 ГБ

В этой теме нет новых непрочитанных сообщений. Стартрек: Бесконечность / Star Trek Beyond [Фантастика, боевик, триллер, приключения, 2016] BDRip 1080p, Dub [лицензия]

salma3

472 | 178

10.26 ГБ

В этой теме нет новых непрочитанных сообщений. Стартрек: Бесконечность / Star Trek Beyond [Фантастика, боевик, триллер, приключения, 2016] Blu-Ray 1080p, Dub [лицензия] [3D-Video]

salma3

51 | 76

44.75 ГБ


Начать новую тему Ответить на тему  [ 1 сообщение ] 




Для Мосгорсуда, Роскомнадзора и рекламодателей:: mosgorsud-torrent[собачка]yandex.ru
cron