Торрент файл
скачать торрент магнет ссылка Добавлен: 24 окт 2016, 20:44
Размер: 1.45 ГБ
Сидеров: 66
Личеров: 14
Статус: (salma3)
Автор

СообщениеДобавлено: 24 окт 2016, 20:44 

Не в сети
Супермодератор
Аватара пользователя
Дата регистрации:
15 фев 2012, 16:44
Возраст: 28
Спасибо: 6643 / 2146
Сообщения: 45784
Перевод: Любительский (двухголосый) [GREEN TEA]
Cубтитры: Aнглийские
Формат: BDRip-AVC, MKV, H.264, AC3
Страна: Япония
Режиссер: Такаси Миике
Жанр: ужасы, фантастика, боевик
Продолжительность: 01:48:58
Год выпуска: 2016

В ролях: Огури Шун, Ямашита Томохиса, Ямада Такаюки, Койкэ Эйко, Косуги Канэ, Ито Хидеаки, Такито Кэнъити, Синода Марико, Ота Рина, Фукусима Рила, Такей Эми, Кикути Ринко, Като Масая

Описание:
С давних пор человечество изучает Марс, пытаясь подчинить себе этот безжизненный и суровый мир. Ученые уже не один десяток лет бьются над планами освоения этой планеты ради блага человечества, запуская на неё различные формы жизни и наблюдая за ними. Теперь, спустя сотни лет, когда Земля становится перенаселенной людьми, находится способ превратить красную планету в пригодное для жизни место. Запускается проект терраформирования, для завершения которого на Марс отправляется группа смельчаков. Но при приземлении их встречает отнюдь не безмолвная пустыня, а гигантские монстры.



Видео: 1024x432 (2.35:1), 23.976 fps, AVC MPEG-4 (H.264), ~1489 kbps, 0.140 bit/pixel
Аудио #1: Русский:48 kHz, AC3 Dolby Digital, 2/0 (L,R) ch, ~192 kbps [Любительский (двухголосый)] [GREEN TEA]
Аудио #2: Японский:48 kHz, AC3 Dolby Digital, 2/0 (L,R) ch, ~192 kbps [Оригинал]
General
Unique ID : 234062461853430483430635949292953018475 (0xB016CA5893464CF68D6478901D78206B)
Complete name : C:\Users\Юрик\Desktop\Terra.Formars.2016.BDRip-AVC_[tfile.ru].mkv
Format : Matroska
Format version : Version 4 / Version 2
File size : 1.45 GiB
Duration : 1h 48mn
Overall bit rate : 1 911 Kbps
Movie name : Terra Formars (2016) (Rip by stalkerok)
Encoded date : UTC 2016-10-24 12:17:45
Writing application : mkvmerge v7.4.0 ('Circles') 64bit built on Dec 12 2014 12:19:56
Writing library : libebml v1.3.0 + libmatroska v1.4.1
_STATISTICS_WRITING_APP : mkvmerge v7.4.0 ('Circles') 64bit built on Dec 12 2014 12:19:56
_STATISTICS_WRITING_DATE_UTC : 2016-10-24 12:17:45
_STATISTICS_TAGS : BPS DURATION NUMBER_OF_FRAMES NUMBER_OF_BYTES
DURATION : 01:44:27.510000000
NUMBER_OF_FRAMES : 902
NUMBER_OF_BYTES : 49913

Video
ID : 1
Format : AVC
Format/Info : Advanced Video Codec
Format profile :
Format settings, CABAC : No
Format settings, ReFrames : 1 frame
Format settings, GOP : M=1, N=12
Codec ID : V_MPEG4/ISO/AVC
Duration : 1h 48mn
Bit rate : 1 489 Kbps
Width : 1 024 pixels
Height : 432 pixels
Display aspect ratio : 2.40:1
Frame rate mode : Constant
Frame rate : 23.976 fps
Color space : YUV
Chroma subsampling : 4:2:0
Bit depth : 8 bits
Scan type : Progressive
Bits/(Pixel*Frame) : 0.140
Stream size : 1.13 GiB (78%)
Default : Yes
Forced : No
DURATION : 01:48:55.878000000
NUMBER_OF_FRAMES : 156665
NUMBER_OF_BYTES : 1245834802
_STATISTICS_WRITING_APP : mkvmerge v7.4.0 ('Circles') 64bit built on Dec 12 2014 12:19:56
_STATISTICS_WRITING_DATE_UTC : 2016-10-24 12:17:45
_STATISTICS_TAGS : BPS DURATION NUMBER_OF_FRAMES NUMBER_OF_BYTES

Audio #1
ID : 2
Format : AC-3
Format/Info : Audio Coding 3
Mode extension : CM (complete main)
Format settings, Endianness : Big
Codec ID : A_AC3
Duration : 1h 48mn
Bit rate mode : Constant
Bit rate : 192 Kbps
Channel(s) : 2 channels
Channel positions : Front: L R
Sampling rate : 48.0 KHz
Compression mode : Lossy
Stream size : 150 MiB (10%)
Language : Russian
Default : Yes
Forced : No
DURATION : 01:48:55.904000000
NUMBER_OF_FRAMES : 204247
NUMBER_OF_BYTES : 156861696
_STATISTICS_WRITING_APP : mkvmerge v7.4.0 ('Circles') 64bit built on Dec 12 2014 12:19:56
_STATISTICS_WRITING_DATE_UTC : 2016-10-24 12:17:45
_STATISTICS_TAGS : BPS DURATION NUMBER_OF_FRAMES NUMBER_OF_BYTES

Audio #2
ID : 3
Format : AC-3
Format/Info : Audio Coding 3
Mode extension : CM (complete main)
Format settings, Endianness : Big
Codec ID : A_AC3
Duration : 1h 48mn
Bit rate mode : Constant
Bit rate : 192 Kbps
Channel(s) : 2 channels
Channel positions : Front: L R
Sampling rate : 48.0 KHz
Compression mode : Lossy
Stream size : 150 MiB (10%)
Language : Japanese
Default : No
Forced : No

Text
ID : 4
Format : ASS
Codec ID : S_TEXT/ASS
Codec ID/Info : Advanced Sub Station Alpha
Compression mode : Lossless
Title : fansub by FURRITSUBS
Language : English
Default : No
Forced : No

Menu
00:00:00.000 : en:Chapter 1
00:08:34.013 : en:Chapter 2
00:13:45.032 : en:Chapter 3
00:18:08.420 : en:Chapter 4
00:25:27.567 : en:Chapter 5
00:33:47.984 : en:Chapter 6
00:43:52.463 : en:Chapter 7
00:53:00.051 : en:Chapter 8
01:02:26.117 : en:Chapter 9
01:09:47.265 : en:Chapter 10
01:17:35.149 : en:Chapter 11
01:27:17.982 : en:Chapter 12
01:38:07.171 : en:Chapter 13
01:44:33.892 : en:Chapter 14




_________________
Проголосуй за трекер Открытый торрент трекер - RUS-MEDIA.ORG

Проголосуй Открытый торрент трекер - RUS-MEDIA.ORG



реклама партнёра


Вернуться к началу
 Профиль Отправить личное сообщение  
 
   Похожие торренты   Автор   Торрент   Размер 
В этой теме нет новых непрочитанных сообщений. Терраформирование / Terraformars / Terra Formars [ужасы, фантастика, боевик, 2016] BDRip, Dvo

salma3

163 | 24

1.39 ГБ

В этой теме нет новых непрочитанных сообщений. Терраформирование / Терраформеры / Terra Formars / Terafomazu [ужасы, фантастика, боевик, 2016] BDRip-AVC, Dvo

marya111

143 | 31

1.46 ГБ

В этой теме нет новых непрочитанных сообщений. Терраформирование / Terafomazu [ужасы, фантастика, боевик, 2016] BDRip 720p, Dvo

salma3

1249 | 318

4.38 ГБ

В этой теме нет новых непрочитанных сообщений. Воины Терра / Warriors of Terra [ужасы, фантастика, 2006] DVDRip,Dvo

salma3

77 | 3

1.33 ГБ

В этой теме нет новых непрочитанных сообщений. Конец дня / Daylight's End [ужасы, фантастика, боевик, 2016] BDRip 720p, Mvo

salma3

453 | 39

4.59 ГБ

В этой теме нет новых непрочитанных сообщений. Зоозомби / Zoombies [Ужасы, фантастика, боевик, 2016] BDRip 1080p, Dvo

salma3

86 | 12

6.67 ГБ

В этой теме нет новых непрочитанных сообщений. Годзилла: Возрождение / Shin Gojira [ужасы, фантастика, боевик, 2016] BDRip 720p, Mvo

salma3

760 | 405

4.75 ГБ


Начать новую тему Ответить на тему  [ 1 сообщение ] 




Для Мосгорсуда, Роскомнадзора и рекламодателей:: mosgorsud-torrent[собачка]yandex.ru