Торрент файл
скачать торрент магнет ссылка Добавлен: 22 окт 2016, 13:34
Размер: 2.39 ГБ
Сидеров: 114
Личеров: 39
Статус: (salma3)
Автор

СообщениеДобавлено: 22 окт 2016, 13:34 

Не в сети
Супермодератор
Аватара пользователя
Дата регистрации:
15 фев 2012, 16:44
Возраст: 29
Спасибо: 7328 / 2147
Сообщения: 73737
Год выхода: 2002
Страна: США
Продолжительность: 01:30:28
Жанр: триллер, драма
Режиссер: Марс Каллахан

В ролях: Марс Каллахан, Чазз Пальминтери, Род Стайгер, Майкл Розенбаум, Рик Шродер, Элисон Иствуд, Кристофер Уокен, Филлип Глассер, Энсон Маунт, Гленн Пламмер, ...

Перевод:
- Профессиональный (двухголосый, закадровый) ?
- Профессиональный (двухголосый, закадровый) НТВ+
- Субтитры

О фильме: В жестоком мире профессионального бильярда, где меткий удар стоит тысячи долларов, а поражение недопустимо, Джонни — живая легенда. Он непобедим, но у него есть заклятый враг, хитрый и безжалостный Джо, которому брат Джонни задолжал крупную сумму.
Теперь Джонни придется слезть со своего трона, чтобы в решающем поединке спасти жизнь брату и отстоять свою честь, сразившись с гениальным подопечным Джо, мечтающим стать новым королем бильярда…



Кодек: x264
Качество: DVDRip-AVC
Видео: 756x572, 3200 kbps, 25 fps
Аудио #1: AC-3, 2 ch, 192 kbps (Rus) - DVO
Аудио #2: AC-3, 2 ch, 192 kbps (Rus) - DVO НТВ+
Аудио #3: AC-3, 2 ch, 192 kbps (Eng)
Субтитры: Русские, Английские
За исходник спасибо - гацкий папа
x264 [info]: frame I:1296 Avg QP:16.02 size: 59405
x264 [info]: frame P:25762 Avg QP:18.30 size: 27812
x264 [info]: frame B:108656 Avg QP:20.28 size: 12681
x264 [info]: consecutive B-frames: 1.5% 1.5% 5.5% 11.1% 11.5% 50.8% 7.6% 5.3% 3.5% 1.1% 0.1% 0.4% 0.0%
Общее
Уникальный идентификатор : 218322808656404010899439248936835276646 (0xA43F7187792DB902B767CDD6CA74DF66)
Полное имя : Поединок (Poolhall Junkies) 2002 DVDRip.mkv
Формат : Matroska
Версия формата : Version 2
Размер файла : 2,39 Гбайт
Продолжительность : 1 ч. 30 м.
Общий поток : 3778 Кбит/сек
Дата кодирования : UTC 2016-10-20 20:10:21
Программа кодирования : mkvmerge v4.0.0 ('The Stars were mine') сборка от Jun 6 2010 16:18:42
Библиотека кодирования : libebml v1.0.0 + libmatroska v1.0.0
Видео
Идентификатор : 1
Формат : AVC
Формат/Информация : Advanced Video Codec
Профиль формата : High@L4.1
Параметр CABAC формата : Да
Параметр ReFrames формата : 12 кадров
Идентификатор кодека : V_MPEG4/ISO/AVC
Продолжительность : 1 ч. 30 м.
Битрейт : 3200 Кбит/сек
Ширина : 756 пикселей
Высота : 572 пикселя
Соотношение сторон : 4:3
Режим частоты кадров : Постоянный
Частота кадров : 25,000 кадров/сек
Цветовое пространство : YUV
Субдискретизация насыщенности : 4:2:0
Битовая глубина : 8 бит
Тип развёртки : Прогрессивная
Бит/(Пиксели*Кадры) : 0.296
Размер потока : 1,98 Гбайт (83%)
Библиотека кодирования : x264 core 146 r2538 121396c
Настройки программы : cabac=1 / ref=12 / deblock=1:-3:-3 / analyse=0x3:0x133 / me=umh / subme=11 / psy=1 / psy_rd=1.00:0.00 / mixed_ref=1 / me_range=32 / chroma_me=1 / trellis=2 / 8x8dct=1 / cqm=0 / deadzone=21,11 / fast_pskip=0 / chroma_qp_offset=-2 / threads=12 / lookahead_threads=2 / sliced_threads=0 / nr=0 / decimate=0 / interlaced=0 / bluray_compat=0 / constrained_intra=0 / bframes=12 / b_pyramid=2 / b_adapt=2 / b_bias=0 / direct=3 / weightb=1 / open_gop=0 / weightp=2 / keyint=250 / keyint_min=25 / scenecut=40 / intra_refresh=0 / rc=2pass / mbtree=0 / bitrate=3200 / ratetol=1.0 / qcomp=0.60 / qpmin=0 / qpmax=69 / qpstep=4 / cplxblur=20.0 / qblur=0.5 / ip_ratio=1.40 / pb_ratio=1.30 / aq=1:0.80
Язык : English
Default : Нет
Forced : Нет
Аудио #1
Идентификатор : 2
Формат : AC-3
Формат/Информация : Audio Coding 3
Расширение режима : CM (complete main)
Параметр Endianness формата : Big
Идентификатор кодека : A_AC3
Продолжительность : 1 ч. 30 м.
Вид битрейта : Постоянный
Битрейт : 192 Кбит/сек
Каналы : 2 канала
Расположение каналов : Front: L R
Частота : 48,0 КГц
Частота кадров : 31,250 кадров/сек (1536 spf)
Метод сжатия : С потерями
Размер потока : 124 Мбайт (5%)
Заголовок : DVO
Язык : Russian
Default : Нет
Forced : Нет
Аудио #2
Идентификатор : 3
Формат : AC-3
Формат/Информация : Audio Coding 3
Расширение режима : CM (complete main)
Параметр Endianness формата : Big
Идентификатор кодека : A_AC3
Продолжительность : 1 ч. 30 м.
Вид битрейта : Постоянный
Битрейт : 192 Кбит/сек
Каналы : 2 канала
Расположение каналов : Front: L R
Частота : 48,0 КГц
Частота кадров : 31,250 кадров/сек (1536 spf)
Метод сжатия : С потерями
Размер потока : 124 Мбайт (5%)
Заголовок : DVO НТВ+ (Александр Рахленко и Ольга Кузнецова)
Язык : Russian
Default : Нет
Forced : Нет
Аудио #3
Идентификатор : 4
Формат : AC-3
Формат/Информация : Audio Coding 3
Расширение режима : CM (complete main)
Параметр Endianness формата : Big
Идентификатор кодека : A_AC3
Продолжительность : 1 ч. 30 м.
Вид битрейта : Постоянный
Битрейт : 192 Кбит/сек
Каналы : 2 канала
Расположение каналов : Front: L R
Частота : 48,0 КГц
Частота кадров : 31,250 кадров/сек (1536 spf)
Метод сжатия : С потерями
Размер потока : 124 Мбайт (5%)
Язык : English
Default : Нет
Forced : Нет
Текст #1
Идентификатор : 5
Формат : UTF-8
Идентификатор кодека : S_TEXT/UTF8
Идентификатор кодека/Информация : UTF-8 Plain Text
Язык : Russian
Default : Нет
Forced : Нет
Текст #2
Идентификатор : 6
Формат : UTF-8
Идентификатор кодека : S_TEXT/UTF8
Идентификатор кодека/Информация : UTF-8 Plain Text
Язык : English
Default : Нет
Forced : Нет



_________________
Проголосуй за трекер Открытый торрент трекер - RUS-MEDIA.ORG

Проголосуй Открытый торрент трекер - RUS-MEDIA.ORG


Вернуться к началу
 Профиль Отправить личное сообщение  
 
   Похожие торренты   Автор   Торрент   Размер 
В этой теме нет новых непрочитанных сообщений. Первый поединок / First Match [драма, 2018] WEBDLRip, Mvo

salma3

237 | 53

1.37 ГБ

В этой теме нет новых непрочитанных сообщений. Поединок / Аннаполис / Annapolis [драма, мелодрама, спорт, 2006] BDRip 1080p, Mvo

salma3

0 | 0

6.12 ГБ

В этой теме нет новых непрочитанных сообщений. Покинутый / Abandon [триллер, драма, мелодрама, 2002] DVDRip, Mvo

salma3

0 | 0

1.45 ГБ

В этой теме нет новых непрочитанных сообщений. Ячейка 507 / La Caja 507 [боевик, триллер, драма, 2002] DVDRip-AVC, Mvo

salma3

127 | 5

2.21 ГБ

В этой теме нет новых непрочитанных сообщений. С меня хватит / Enough [Триллер, Боевик, Драма, 2002] DVDRip-AVC, Dub

salma3

18 | 1

2.88 ГБ

В этой теме нет новых непрочитанных сообщений. Соперник / L'adversaire [Триллер, драма, криминал, 2002] DVDRip-AVC, Mvo+Sub

salma3

64 | 17

2.99 ГБ

В этой теме нет новых непрочитанных сообщений. Mommy Swap / Обмен Мамочками (Bobby Manila, Reality Junkies) [2017 г., All Sex, Oral, Gonzo, Mature, MILF, BigTits, DVDRip]

max77777

0 | 0

1.18 ГБ


Начать новую тему Ответить на тему  [ 1 сообщение ] 




Для Мосгорсуда, Роскомнадзора и рекламодателей:: mosgorsud-torrent[собачка]yandex.ru
cron