Торрент файл
скачать торрент магнет ссылка Добавлен: 20 окт 2016, 20:17
Размер: 1.46 ГБ
Сидеров: 8
Личеров: 13
Статус: (salma3)
Автор

СообщениеДобавлено: 20 окт 2016, 20:17 

Не в сети
Супермодератор
Аватара пользователя
Дата регистрации:
15 фев 2012, 16:44
Возраст: 28
Спасибо: 6920 / 2147
Сообщения: 52783
Перевод: Авторский (одноголосый) [Ю. Живов]
субтитры: отсутствуют
Формат: HDRip - AVC, MKV, H.264, AC3
Страна: Италия, Германия (ФРГ), Швейцария
Режиссер: Антонио Маргерити
Жанр: боевик
Продолжительность: 01:43:11
Год выпуска: 1985

В ролях: Льюис Коллинз, Клаус Кински, Кристина Донадио, Манфред Леманн, Джон Стейнер, Френсис Дероса, Алан С. Уолкер, Рене Абадеза

Описание: Спецкоманда «Леопард» в джунглях помогает повстанческим отрядам бороться с реакционным диктаторским режимом: нападает на военные базы, взрывает плотины. Со своей стороны, войска власть имущих готовы безжалостно уничтожить каждого, кто посягает на их господство: они расстреливают раненых в больнице, убивают священника, готовят серию предательских ловушек для главных героев…



Видео: 1024x432 (2.40:1), 24.000 fps, AVC MPEG-4 (H.264), ~1798 kbps, 0.169 bit/pixel
Аудио: 48 kHz, AC3 Dolby Digital, 2/0 (L,R) ch, ~192 kbps

General
Unique ID : 168348648403719580577546155723716462494 (0x7EA6C532C2870C1E037BA147C20E879E)
Complete name : C:\Users\Юрик\Desktop\Commando.Leopard.1985.HDRip_[tfile.ru].mkv
Format : Matroska
Format version : Version 2
File size : 1.46 GiB
Duration : 1h 43mn
Overall bit rate : 2 030 Kbps
Writing application : Lavf51.12.1
Writing library : Lavf51.12.1

Video
ID : 1
Format : AVC
Format/Info : Advanced Video Codec
Format profile :
Format settings, CABAC : No
Format settings, ReFrames : 1 frame
Format settings, GOP : M=1, N=12
Codec ID : V_MPEG4/ISO/AVC
Duration : 1h 43mn
Bit rate : 1 798 Kbps
Width : 1 024 pixels
Height : 432 pixels
Display aspect ratio : 2.40:1
Frame rate mode : Constant
Frame rate : 24.000 fps
Color space : YUV
Chroma subsampling : 4:2:0
Bit depth : 8 bits
Scan type : Progressive
Bits/(Pixel*Frame) : 0.169
Stream size : 1.30 GiB (89%)
Default : Yes
Forced : No

Audio
ID : 2
Format : AC-3
Format/Info : Audio Coding 3
Mode extension : CM (complete main)
Format settings, Endianness : Big
Codec ID : A_AC3
Duration : 1h 43mn
Bit rate mode : Constant
Bit rate : 192 Kbps
Channel(s) : 2 channels
Channel positions : Front: L R
Sampling rate : 48.0 KHz
Bit depth : 32 bits
Compression mode : Lossy
Stream size : 142 MiB (9%)
Default : Yes
Forced : No




_________________
Проголосуй за трекер Открытый торрент трекер - RUS-MEDIA.ORG

Проголосуй Открытый торрент трекер - RUS-MEDIA.ORG



реклама партнёра


Вернуться к началу
 Профиль Отправить личное сообщение  
 
   Похожие торренты   Автор   Торрент   Размер 
В этой теме нет новых непрочитанных сообщений. Коммандо-леопард / Kommando Leopard [боевик, 1985] HDRip, Avo

salma3

76 | 28

1.46 ГБ

В этой теме нет новых непрочитанных сообщений. В поисках легенды. Черный леопард / In Search of Legend: The Black Leopard [документальный, природа, фауна, флора, SATRip, Avo

salma3

3 | 2

608.06 МБ

В этой теме нет новых непрочитанных сообщений. Отряд / Antigang [Боевик, драма, 2015] HDRip-AVC, dub [Чистый звук]

Dracon

63 | 4

1.48 ГБ

В этой теме нет новых непрочитанных сообщений. Отряд / Antigang [Боевик, драма, 2015] HDRip, dub [Чистый звук]

Dracon

1516 | 125

1.45 ГБ

В этой теме нет новых непрочитанных сообщений. Зловещий отряд / Sinister Squad [фантастика, фэнтези, боевик, 2016] HDRip, Mvo

salma3

1810 | 449

1.37 ГБ

В этой теме нет новых непрочитанных сообщений. Снайпер: Специальный отряд / Sniper: Special Ops [боевик, драма, военный, 2016] HDRip, Mvo

salma3

0 | 0

1.45 ГБ

В этой теме нет новых непрочитанных сообщений. Коммандо из пригорода / Suburban Commando [фантастика, боевик, комедия, 1991] WEB-DLRip, Mvo+Avo

salma3

0 | 0

1.45 ГБ


Начать новую тему Ответить на тему  [ 1 сообщение ] 




Для Мосгорсуда, Роскомнадзора и рекламодателей:: mosgorsud-torrent[собачка]yandex.ru
cron