Торрент файл
скачать торрент магнет ссылка Добавлен: 19 окт 2016, 20:14
Размер: 1.46 ГБ
Сидеров: 76
Личеров: 28
Статус: (salma3)
Автор

СообщениеДобавлено: 19 окт 2016, 20:14 

Не в сети
Супермодератор
Аватара пользователя
Дата регистрации:
15 фев 2012, 16:44
Возраст: 27
Спасибо: 5121 / 2089
Сообщения: 17342
Перевод: Авторский (одноголосый закадровый) Живов
Субтитры: отсутствуют
Формат: HDRip, AVI, XviD, AC3
Страна: Италия, Германия (ФРГ), Швейцария
Режиссер: Антонио Маргерити
Жанр: боевик
Продолжительность: 01:43:11
Год выпуска: 1985

В ролях: Льюис Коллинз, Клаус Кински, Кристина Донадио, Манфред Леманн, Джон Стейнер, Френсис Дероса, Алан С. Уолкер, Рене Абадеза

Описание: Спецкоманда «Леопард» в джунглях помогает повстанческим отрядам бороться с реакционным диктаторским режимом: нападает на военные базы, взрывает плотины. Со своей стороны, войска власть имущих готовы безжалостно уничтожить каждого, кто посягает на их господство: они расстреливают раненых в больнице, убивают священника, готовят серию предательских ловушек для главных героев…



Видео: 704x304 (2.32:1), 24 fps, XviD build 73 ~1828 kbps avg, 0.36 bit/pixel
Аудио: 48 kHz, AC3 Dolby Digital, 2/0 (L,R) ch, ~192 kbps

General
Format : AVI
Format/Info : Audio Video Interleave
File size : 1.46 GiB
Duration : 1h 43mn
Overall bit rate : 2 030 Kbps
Writing application : VirtualDubMod 1.5.10.3 | www.virtualdub-fr.org || (build 2550/release)
Writing library : VirtualDubMod build 2550/release

Video
ID : 0
Format : MPEG-4 Visual
Format profile : Advanced Simple@L5
Format settings, BVOP : 1
Format settings, QPel : No
Format settings, GMC : No warppoints
Format settings, Matrix : Custom
Codec ID : XVID
Codec ID/Hint : XviD
Duration : 1h 43mn
Bit rate : 1 829 Kbps
Width : 704 pixels
Height : 304 pixels
Display aspect ratio : 2.35:1
Frame rate : 24.000 fps
Color space : YUV
Chroma subsampling : 4:2:0
Bit depth : 8 bits
Scan type : Progressive
Compression mode : Lossy
Bits/(Pixel*Frame) : 0.356
Stream size : 1.32 GiB (90%)
Writing library : XviD 73

Audio
ID : 1
Format : AC-3
Format/Info : Audio Coding 3
Mode extension : CM (complete main)
Format settings, Endianness : Big
Codec ID : 2000
Duration : 1h 43mn
Bit rate mode : Constant
Bit rate : 192 Kbps
Channel(s) : 2 channels
Channel positions : Front: L R
Sampling rate : 48.0 KHz
Bit depth : 16 bits
Compression mode : Lossy
Stream size : 142 MiB (9%)
Alignment : Split accross interleaves
Interleave, duration : 42 ms (1.00 video frame)
Interleave, preload duration : 500 ms




_________________



реклама партнёра


Вернуться к началу
 Профиль Отправить личное сообщение  
 
   Похожие торренты   Автор   Торрент   Размер 
В этой теме нет новых непрочитанных сообщений. Коммандо-леопард / Диверсионный отряд Леопард / Kommando Leopard [Боевик, 1985] Blu-ray Remux 1080p, Avo+Sub

salma3

3 | 4

20.98 ГБ

В этой теме нет новых непрочитанных сообщений. Коммандо-леопард / Диверсионный отряд Леопард / Kommando Leopard [Боевик, 1985] BDRip 720p, Avo

salma3

9 | 11

5.75 ГБ

В этой теме нет новых непрочитанных сообщений. Коммандо-леопард / Диверсионный отряд "Леопард" / Kommando Leopard [боевик, 1985] HDRip-AVC, Avo

salma3

8 | 12

1.46 ГБ

В этой теме нет новых непрочитанных сообщений. В поисках легенды. Черный леопард / In Search of Legend: The Black Leopard [документальный, природа, фауна, флора, SATRip, Avo

salma3

3 | 2

608.06 МБ

В этой теме нет новых непрочитанных сообщений. Коммандо из пригорода / Suburban Commando [фантастика, боевик, комедия, 1991] WEB-DLRip, Mvo+Avo

salma3

0 | 0

1.45 ГБ

В этой теме нет новых непрочитанных сообщений. Коммандо из пригорода / Suburban Commando [Фантастика, Боевик, Комедия, 1991] HDTVRip 720p, Mvo+Avo

salma3

0 | 3

4.22 ГБ

В этой теме нет новых непрочитанных сообщений. Irony - Sheitan Kommando [2013, Thrash Metal, MP3]

PriZraK

0 | 1

85.21 МБ


Начать новую тему Ответить на тему  [ 1 сообщение ] 




Для Мосгорсуда, Роскомнадзора и рекламодателей:: mosgorsud-torrent[собачка]yandex.ru