Торрент файл
скачать торрент магнет ссылка Добавлен: 18 окт 2016, 12:27
Размер: 1.8 ГБ
Сидеров: 57
Личеров: 20
Статус: (salma3)
Автор

СообщениеДобавлено: 18 окт 2016, 12:27 

Не в сети
Супермодератор
Аватара пользователя
Дата регистрации:
15 фев 2012, 16:44
Возраст: 27
Спасибо: 5130 / 2089
Сообщения: 17349
Производство: США, Франция / Blumhouse Productions, Platinum Dunes, Universal Pictures
Жанр: ужасы, фантастика, боевик, триллер
Режиссер: Джеймс ДеМонако
Продюсер: Майкл Бэй, Джейсон Блум, Филлип Дейв

Актеры: Фрэнк Грилло, Элизабет Митчелл, Майкелти Уильямсон, Джозеф Джулиан Сория, Бетти Гэбриел, Терри Серпико, Эдвин Ходж, Кайл Сикор, Бэрри Нолан, Лиза Колон-Зайас

Описание:
Добро пожаловать в идеальное будущее, в котором Судная ночь превратилась в международный тренд. Туристы со всего мира прибывают в аэропорты Америки: ведь всего лишь раз в году здесь позволено все, главное — дожить до рассвета.



Релиз от: K.E.N (NNM-CLUB)

Продолжительность: 01:48:28
Качество: BDRip-AVC
Перевод: Дублированный, авторский (одноголосый) М.Яроцкий
Субтитры: Английские
Видео: AVC, 1024x428 (2.35:1), 23.976 fps, 1 535 Kbps (0.146 bit/pixel)
Аудио 1: AC-3, 48.0 KHz, 6 ch, 384 Kbps - дубляж
Аудио 2: AC-3, 48.0 KHz, 6 ch, 448 Kbps - авторский
Формат : Matroska
Версия формата : Version 2
Размер файла : 1,80 Гбайт
Продолжительность : 1 ч. 48 м.
Общий поток : 2369 Кбит/сек
Название фильма : Судная ночь 3 / The Purge: Election Year (2016) :: AFM ::
Дата кодирования : UTC 2016-10-16 11:19:54
Программа кодирования : mkvmerge v5.3.0 ('I could have danced') built on Feb 9 2012 10:38:07
Библиотека кодирования : libebml v1.2.3 + libmatroska v1.3.0
Attachment : Yes
Видео
Идентификатор : 1
Формат : AVC
Формат/Информация : Advanced Video Codec
Профиль формата : High@L4.1
Параметр CABAC формата : Да
Параметр ReFrames формата : 12 кадров
Идентификатор кодека : V_MPEG4/ISO/AVC
Продолжительность : 1 ч. 48 м.
Битрейт : 1535 Кбит/сек
Ширина : 1024 пикселя
Высота : 428 пикселей
Соотношение сторон : 2,40:1
Режим частоты кадров : Постоянный
Частота кадров : 23,976 кадра/сек
Цветовое пространство : YUV
Субдискретизация насыщенности : 4:2:0
Битовая глубина : 8 бит
Тип развёртки : Прогрессивная
Бит/(Пиксели*Кадры) : 0.146
Размер потока : 1,13 Гбайт (63%)
Библиотека кодирования : x264 core 146 r2538 121396c
Настройки программы : cabac=1 / ref=12 / deblock=1:-2:-2 / analyse=0x3:0x133 / me=umh / subme=11 / psy=1 / psy_rd=1.00:0.00 / mixed_ref=1 / me_range=32 / chroma_me=1 / trellis=2 / 8x8dct=1 / cqm=0 / deadzone=21,11 / fast_pskip=0 / chroma_qp_offset=-2 / threads=12 / lookahead_threads=2 / sliced_threads=0 / nr=0 / decimate=0 / interlaced=0 / bluray_compat=0 / constrained_intra=0 / bframes=8 / b_pyramid=2 / b_adapt=2 / b_bias=0 / direct=3 / weightb=1 / open_gop=0 / weightp=2 / keyint=240 / keyint_min=23 / scenecut=40 / intra_refresh=0 / rc_lookahead=40 / rc=2pass / mbtree=0 / bitrate=1535 / ratetol=1.0 / qcomp=0.60 / qpmin=0 / qpmax=69 / qpstep=4 / cplxblur=20.0 / qblur=0.5 / vbv_maxrate=50000 / vbv_bufsize=62500 / nal_hrd=none / filler=0 / ip_ratio=1.40 / pb_ratio=1.30 / aq=1:0.70
Default : Да
Forced : Нет
Аудио #1
Идентификатор : 2
Формат : AC-3
Формат/Информация : Audio Coding 3
Расширение режима : CM (complete main)
Параметр Endianness формата : Big
Идентификатор кодека : A_AC3
Продолжительность : 1 ч. 48 м.
Вид битрейта : Постоянный
Битрейт : 384 Кбит/сек
Каналы : 6 каналов
Расположение каналов : Front: L C R, Side: L R, LFE
Частота : 48,0 КГц
Битовая глубина : 16 бит
Метод сжатия : С потерями
Размер потока : 299 Мбайт (16%)
Default : Да
Forced : Нет
Аудио #2
Идентификатор : 3
Формат : AC-3
Формат/Информация : Audio Coding 3
Расширение режима : CM (complete main)
Параметр Endianness формата : Big
Идентификатор кодека : A_AC3
Продолжительность : 1 ч. 48 м.
Вид битрейта : Постоянный
Битрейт : 448 Кбит/сек
Каналы : 6 каналов
Расположение каналов : Front: L C R, Side: L R, LFE
Частота : 48,0 КГц
Битовая глубина : 16 бит
Метод сжатия : С потерями
Размер потока : 349 Мбайт (19%)
Заголовок : AVO Михаил Яроцкий
Язык : Russian
Default : Нет
Forced : Нет
Текст
Идентификатор : 4
Формат : UTF-8
Идентификатор кодека : S_TEXT/UTF8
Идентификатор кодека/Информация : UTF-8 Plain Text
Язык : English
Default : Нет
Forced : Нет
Меню #1
00:00:00.000 : :Chapter 01
00:05:47.346 : :Chapter 02
00:09:21.977 : :Chapter 03
00:17:15.616 : :Chapter 04
00:22:49.492 : :Chapter 05
00:28:43.179 : :Chapter 06
00:35:58.488 : :Chapter 07
00:41:50.506 : :Chapter 08
00:47:03.109 : :Chapter 09
00:53:30.372 : :Chapter 10
00:57:31.530 : :Chapter 11
01:02:20.820 : :Chapter 12
01:10:43.613 : :Chapter 13
01:17:32.729 : :Chapter 14
01:22:16.765 : :Chapter 15
01:27:03.091 : :Chapter 16
01:32:12.818 : :Chapter 17
01:36:17.479 : :Chapter 18
01:41:35.713 : :Chapter 19
01:43:36.752 : :Chapter 20
01:48:47.311 : :Chapter 21


_________________



реклама партнёра


Вернуться к началу
 Профиль Отправить личное сообщение  
 
   Похожие торренты   Автор   Торрент   Размер 
В этой теме нет новых непрочитанных сообщений. Судная ночь 3 / The Purge: Election Year (Ужасы, фантастика, боевик, триллер, 2016) BDRip от MegaPeer | Лицензия

marya111

102 | 7

1.46 ГБ

В этой теме нет новых непрочитанных сообщений. Судная ночь 3 / The Purge: Election Year (ужасы, фантастика, боевик, триллер, 2016) BDRip от HQCLUB | Лицензия

marya111

251 | 16

2.18 ГБ

В этой теме нет новых непрочитанных сообщений. Судная ночь 3 / The Purge: Election Year [ужасы, фантастика, боевик, триллер, 2016] BDRip 720p, Dub [iTunes]

marya111

626 | 22

7.16 ГБ

В этой теме нет новых непрочитанных сообщений. Судная ночь 3 / The Purge: Election Year [ужасы, фантастика, боевик, триллер, 2016] BDRip 720p, Dub [iTunes]

salma3

78 | 8

5.75 ГБ

В этой теме нет новых непрочитанных сообщений. Судная ночь 3 / The Purge: Election Year (ужасы, фантастика, боевик, триллер, 2016) BDRip 1080p от New-Team | Лицензия

marya111

0 | 0

14.81 ГБ

В этой теме нет новых непрочитанных сообщений. Судная ночь 3 / The Purge: Election Year [ужасы, фантастика, боевик, триллер, 2016] WEBRip, Mvo

salma3

2244 | 47

1.46 ГБ

В этой теме нет новых непрочитанных сообщений. Судная ночь 3 / The Purge: Election Year [ужасы, фантастика, боевик, триллер, 2016] HDRip, dub [iTunes]

marya111

86 | 9

2.06 ГБ


Начать новую тему Ответить на тему  [ 1 сообщение ] 




Для Мосгорсуда, Роскомнадзора и рекламодателей:: mosgorsud-torrent[собачка]yandex.ru