Торрент файл
скачать торрент магнет ссылка Добавлен: 17 окт 2016, 20:21
Размер: 1.46 ГБ
Сидеров: 81
Личеров: 25
Статус: (salma3)
Автор

СообщениеДобавлено: 17 окт 2016, 20:21 

В сети
Супермодератор
Аватара пользователя
Дата регистрации:
15 фев 2012, 16:44
Возраст: 28
Спасибо: 6567 / 2132
Сообщения: 43748
Перевод: Профессиональный (многоголосый закадровый)[Первый канал]
Cубтитры: отсутствуют
Формат: DVDRip, AVI, XviD, AC3
Страна: Индонезия, США
Режиссер: Гай Норрис
Жанр: боевик, триллер, драма, криминал
Продолжительность: 01:37:37
Год выпуска: 1993

В ролях: Синтия Ротрок, Ричард Нортон, Патрик Малдун, Франс Тамбуан, Рон Врикен, Алекс Тамундо, Джон Дж. Суси, Танака, Йени Фарида, Дэниэл Кобб, Дональд Пол Пемрик, Дон Бальфур, Грэхэм Стумпф, Гленн Руеланд, Джон П. Мелфи, Рон Нэйлор, Рони, Д.Е. Купер, Грег Райан, Джонни Кэйн

Описание:На этот раз наши герои оказываются втянуты в смертельную схватку в экзотическом и опасном мире. Престон занимается совершенствованием своего боевого мастерства в Джакарте. Тем временем, Крис отправляется в Индонезию в качестве агента ЦРУ, чтобы расследовать операцию по отмывке денег. Но встречавший ее связной убит и ей приходится устраиваться на работу в банк. Крис и Престон, каждый своим путем, оказываются вовлеченными в войну банд, борющихся за контроль над контрабандными операциями. При случайной встрече они и вида не подают, что знают друг друга. Постоянно оказываясь по разную сторону баррикад, сражаясь то с одними, то с другими громилами местной мафии, Крис и Престон срывают преступные планы и захватывают вертолет с алмазами.



Видео: 640x480 (1.33:1), 23.976 fps, XviD build 73 ~1942 kbps avg, 0.26 bit/pixel
Аудио: 48 kHz, AC3 Dolby Digital, 2/0 (L,R) ch, ~192 kbps

За перевод с Первого канала спасибо Richard_norton, за оцифровку с VHS спасибо Sem-te, за синхронизацию перевода огромное благодарность Asianmaster.

General
Format : AVI
Format/Info : Audio Video Interleave
File size : 1.46 GiB
Duration : 1h 37mn
Overall bit rate : 2 144 Kbps
Writing application : VirtualDubMod 1.5.10.3 | www.virtualdub-fr.org || (build 2550/release)
Writing library : VirtualDubMod build 2550/release

Video
ID : 0
Format : MPEG-4 Visual
Format profile : Advanced Simple@L5
Format settings, BVOP : 1
Format settings, QPel : No
Format settings, GMC : No warppoints
Format settings, Matrix : Custom
Codec ID : XVID
Codec ID/Hint : XviD
Duration : 1h 37mn
Bit rate : 1 943 Kbps
Width : 640 pixels
Height : 480 pixels
Display aspect ratio : 4:3
Frame rate : 23.976 fps
Color space : YUV
Chroma subsampling : 4:2:0
Bit depth : 8 bits
Scan type : Progressive
Compression mode : Lossy
Bits/(Pixel*Frame) : 0.264
Stream size : 1.33 GiB (91%)
Writing library : XviD 73

Audio
ID : 1
Format : AC-3
Format/Info : Audio Coding 3
Mode extension : CM (complete main)
Format settings, Endianness : Big
Codec ID : 2000
Duration : 1h 37mn
Bit rate mode : Constant
Bit rate : 192 Kbps
Channel(s) : 2 channels
Channel positions : Front: L R
Sampling rate : 48.0 KHz
Bit depth : 16 bits
Compression mode : Lossy
Stream size : 134 MiB (9%)
Alignment : Split accross interleaves
Interleave, duration : 42 ms (1.00 video frame)
Interleave, preload duration : 500 ms




_________________
Проголосуй за трекер Открытый торрент трекер - RUS-MEDIA.ORG

Проголосуй Открытый торрент трекер - RUS-MEDIA.ORG



реклама партнёра


Вернуться к началу
 Профиль Отправить личное сообщение  
 
   Похожие торренты   Автор   Торрент   Размер 
В этой теме нет новых непрочитанных сообщений. Честь и ярость 2: Враждебный захват / Rage And Honor 2: Hostile Takeover [боевик, боевые искусства, 1993] DVD5, Avo

salma3

23 | 24

4.14 ГБ

В этой теме нет новых непрочитанных сообщений. Ярость / The Rage [Боевик, триллер, 1997] DVDRip, Avo

salma3

29 | 2

1.48 ГБ

В этой теме нет новых непрочитанных сообщений. Высшая честь / Extreme Honor [боевик, драма, 2001] DVDRip, Dvo

salma3

17 | 6

1.37 ГБ

В этой теме нет новых непрочитанных сообщений. Честь семьи Прицци / Prizzi's Honor [драма, мелодрама, криминал, 1985] HDRip, Mvo

salma3

22 | 1

2.18 ГБ

В этой теме нет новых непрочитанных сообщений. Честь семьи Прицци / Prizzi's Honor [мелодрама, драма, криминал, 1985] HDTVRip 720p, Mvo+Avo+Sub

salma3

59 | 8

4.42 ГБ

В этой теме нет новых непрочитанных сообщений. Честь семьи Прицци / Prizzi's Honor [драма, мелодрама, криминал, 1985] BDRip 720p, Mvo

salma3

18 | 3

8.81 ГБ

В этой теме нет новых непрочитанных сообщений. Ярость зверя / Rage, furia primitiva [ужасы, фантастика, триллер, 1988] DVDRip, Avo

salma3

23 | 5

1.49 ГБ


Начать новую тему Ответить на тему  [ 1 сообщение ] 




Для Мосгорсуда, Роскомнадзора и рекламодателей:: mosgorsud-torrent[собачка]yandex.ru