Торрент файл
скачать торрент магнет ссылка Добавлен: 13 окт 2016, 12:41
Размер: 1.49 ГБ
Сидеров: 93
Личеров: 29
Статус: (salma3)
Автор

СообщениеДобавлено: 13 окт 2016, 12:41 

Не в сети
Супермодератор
Аватара пользователя
Дата регистрации:
15 фев 2012, 16:44
Возраст: 27
Спасибо: 5143 / 2090
Сообщения: 17514
Перевод: Профессиональный (полное дублирование) [iTunes], субтитры: отсутствуют
Формат: HDRip-AVC, MKV, H.264, AC3
Страна: Франция
Режиссер: Жан-Мари Пуаре
Жанр: Комедия
Продолжительность: 01:49:29
Год выпуска: 2016

В ролях: Кристиан Клавье, Жан Рено, Франк Дюбоск, Карин Вьяр, Сильви Тестю, Мари-Анн Шазель, Эри Абиттан, Алекс Лутс, Стефани де Крэенкур, Вероника Буланжер

Описание: Легендарные и любимые миллионами комедии «Пришельцы» и «Пришельцы 2: Коридоры времени» получили свое продолжение. Заключительная часть трилогии будет посвящена приключениям героев Жана Рено и Кристиана Клавье во времени, и на этот раз они попадут в одну из самых ярких эпох – время Великой Французской Революции. «Тот самый» качественный французский юмор, по которому скучали, блестящий актерский состав, пронизанный изящной иронией сценарий дают полное основание полагать, что современное прочтение культовых французских картин не оставит равнодушными ценителей жанра, поклонников легендарных актеров и всех любителей первоклассного европейского кино.



Видео: 1024x432 (2.40:1), 24.000 fps, AVC MPEG-4 (H.264), ~1525 kbps, 0.144 bit/pixel
Аудио: 48 kHz, AC3 Dolby Digital, 3/2 (L,C,R,l,r) + LFE ch, ~384 kbps
General
Unique ID : 168348648403719580577546155723716462494 (0x7EA6C532C2870C1E037BA147C20E879E)
Complete name : C:\Users\Юрик\Desktop\Les.Visiteurs.La.Revolution_[tfile.ru].mkv
Format : Matroska
Format version : Version 2
File size : 1.49 GiB
Duration : 1h 49mn
Overall bit rate : 1 947 Kbps
Writing application : Lavf51.12.1
Writing library : Lavf51.12.1

Video
ID : 1
Format : AVC
Format/Info : Advanced Video Codec
Format profile :
Format settings, CABAC : No
Format settings, ReFrames : 1 frame
Format settings, GOP : M=1, N=12
Codec ID : V_MPEG4/ISO/AVC
Duration : 1h 49mn
Bit rate : 1 525 Kbps
Width : 1 024 pixels
Height : 432 pixels
Display aspect ratio : 2.40:1
Frame rate mode : Constant
Frame rate : 24.000 fps
Color space : YUV
Chroma subsampling : 4:2:0
Bit depth : 8 bits
Scan type : Progressive
Bits/(Pixel*Frame) : 0.144
Stream size : 1.17 GiB (78%)
Language : French
Default : Yes
Forced : No

Audio
ID : 2
Format : AC-3
Format/Info : Audio Coding 3
Mode extension : CM (complete main)
Format settings, Endianness : Big
Codec ID : A_AC3
Duration : 1h 49mn
Bit rate mode : Constant
Bit rate : 384 Kbps
Channel(s) : 6 channels
Channel positions : Front: L C R, Side: L R, LFE
Sampling rate : 48.0 KHz
Bit depth : 32 bits
Compression mode : Lossy
Stream size : 301 MiB (20%)
Language : Russian
Default : Yes
Forced : No




_________________



реклама партнёра


Вернуться к началу
 Профиль Отправить личное сообщение  
 
   Похожие торренты   Автор   Торрент   Размер 
В этой теме нет новых непрочитанных сообщений. Пришельцы 3: Взятие Бастилии / Les Visiteurs: La Révolution [Комедия, 2016] BDRip 720p, Dub [iTunes]

marya111

68 | 8

4.66 ГБ

В этой теме нет новых непрочитанных сообщений. Пришельцы 3: Взятие Бастилии / Les Visiteurs: La Révolution [Комедия, 2016] BDRip 1080p, Dub [iTunes]

marya111

94 | 8

7.95 ГБ

В этой теме нет новых непрочитанных сообщений. Пришельцы 3: Взятие Бастилии / Les Visiteurs: La Révolution [комедия, 2016] HDRip, Mvo

salma3

1503 | 189

1.37 ГБ

В этой теме нет новых непрочитанных сообщений. Пришельцы 3: Взятие Бастилии / Les Visiteurs: La Révolution [комедия, 2016] BDRip 1080p, Mvo

salma3

406 | 82

8.41 ГБ

В этой теме нет новых непрочитанных сообщений. Пришельцы 3: Взятие Бастилии / Les Visiteurs: La Révolution [комедия, 2016] BDRip 720p, Mvo

salma3

440 | 102

4.81 ГБ

В этой теме нет новых непрочитанных сообщений. Пришельцы / Les Visiteurs [фантастика, фэнтези, комедия, 1993] BDRip 1080p, Dub+3Mvo+2Avo+Sub

salma3

55 | 7

10.9 ГБ

В этой теме нет новых непрочитанных сообщений. Имущество с хвостом / Who Gets the Dog? [комедия, 2016] HDRip, Dub [iTunes]

salma3

1871 | 667

1.37 ГБ


Начать новую тему Ответить на тему  [ 1 сообщение ] 




Для Мосгорсуда, Роскомнадзора и рекламодателей:: mosgorsud-torrent[собачка]yandex.ru