Торрент файл
скачать торрент магнет ссылка Добавлен: 13 окт 2016, 12:23
Размер: 2.15 ГБ
Сидеров: 143
Личеров: 38
Статус: (salma3)
Автор

СообщениеДобавлено: 13 окт 2016, 12:23 

В сети
Супермодератор
Аватара пользователя
Дата регистрации:
15 фев 2012, 16:44
Возраст: 27
Спасибо: 5138 / 2089
Сообщения: 17411
Страна: США
Год выпуска: 2016
Жанр: фэнтези, приключения, семейный
Продолжительность: 01:53:12
Режиссер: Джеймс Бобин
Авторы сценария: Линда Вулвертон, Льюис Кэрролл

В ролях: Миа Васиковска, Джонни Депп, Хелена Бонем Картер, Энн Хэтэуэй, Саша Барон Коэн, Рис Иванс, Мэтт Лукас, Линдси Дункан

Описание: На этот раз главной героине предстоит отправиться в путешествие во времени, полное неожиданностей и ярких открытий, чтобы спасти своего друга, Безумного Шляпника...



Перевод: Профессиональный (полное дублирование) | лицензия
Субтитры: русские (forced + full), английские (forced + full)

Качество: BDRip-AVC | исходник ALICE_THROUGH_THE_LOOKING_GLASS_REMUX_HDCLUB
Формат: МКV
Видео кодек: AVC
Аудио кодек: АС3
Видео: 800x432 (1.85:1), 23.976 fps, MPEG-4 AVC ~1 838 kbps avg
Аудио №1: 48.0 kHz, AC3 Dolby Digital, 3/2 (L,C,R,l,r) + LFE ch, ~448 kbps | RUS
Аудио №2: 48.0 kHz, AC3 Dolby Digital, 3/2 (L,C,R,l,r) + LFE ch, ~384 kbps | ENG
Формат субтитров: UTF-8 Plain Text
Дата премьеры (мир): 25 мая 2016
Дата премьеры (РФ): 26 мая 2016, «WDSSPR»

Релиз от: AFM
General
Format : Matroska
Format version : Version 4 / Version 2
File size : 2.15 GiB
Duration : 1h 53 min
Overall bit rate : 2 725 kb/s
Movie name : Алиса в Зазеркалье / Alice Through the Looking Glass (2016) :: AFM ::
Encoded date : UTC 2016-10-12 08:10:02
Writing application : mkvmerge v8.3.0 ('Over the Horizon') 32bit
Writing library : libebml v1.3.1 + libmatroska v1.4.2
Video
ID : 1
Format : AVC
Format/Info : Advanced Video Codec
Format profile : High@L4.1
Format settings, CABAC : Yes
Format settings, ReFrames : 10 frames
Codec ID : V_MPEG4/ISO/AVC
Duration : 1h 53 min
Bit rate : 1 838 kb/s
Width : 800 pixels
Height : 432 pixels
Display aspect ratio : 1.85:1
Frame rate mode : Constant
Frame rate : 23.976 (24000/1001) FPS
Color space : YUV
Chroma subsampling : 4:2:0
Bit depth : 8 bits
Scan type : Progressive
Bits/(Pixel*Frame) : 0.222
Stream size : 1.45 GiB (67%)
Title : BDRip by AFM
Writing library : x264 core 148 r2705+54 9f484c1 t_mod_Custom [8-bit@all X86_64]
Encoding settings : cabac=1 / ref=10 / deblock=1:-2:-2 / analyse=0x3:0x133 / me=umh / subme=10 / psy=1 / fade_compensate=0.00 / psy_rd=1.00:0.00 / mixed_ref=1 / me_range=32 / chroma_me=1 / trellis=2 / 8x8dct=1 / cqm=0 / deadzone=21,11 / fast_pskip=0 / chroma_qp_offset=-2 / threads=6 / lookahead_threads=1 / sliced_threads=0 / nr=0 / decimate=1 / interlaced=0 / bluray_compat=0 / constrained_intra=0 / fgo=0 / bframes=12 / b_pyramid=2 / b_adapt=2 / b_bias=0 / direct=1 / weightb=1 / open_gop=0 / weightp=2 / keyint=250 / keyint_min=23 / scenecut=40 / intra_refresh=0 / rc_lookahead=40 / rc=crf / mbtree=0 / crf=17.8000 / qcomp=0.65 / qpmin=0:0:0 / qpmax=69:69:69 / qpstep=4 / vbv_maxrate=50000 / vbv_bufsize=62500 / crf_max=0.0 / nal_hrd=none / filler=0 / ip_ratio=1.35 / pb_ratio=1.30 / aq=3:0.90 / aq-sensitivity=10.00 / aq-factor=1.00:1.00:1.00 / aq2=0 / aq3=0
Language : English
Default : Yes
Forced : No
Audio #1
ID : 2
Format : AC-3
Format/Info : Audio Coding 3
Mode extension : CM (complete main)
Format settings, Endianness : Big
Codec ID : A_AC3
Duration : 1h 53 min
Bit rate mode : Constant
Bit rate : 448 kb/s
Channel(s) : 6 channels
Channel positions : Front: L C R, Side: L R, LFE
Sampling rate : 48.0 kHz
Frame rate : 31.250 FPS (1536 spf)
Compression mode : Lossy
Stream size : 363 MiB (16%)
Title : Dub, AC3 5.1 ~448 kbps
Language : Russian
Default : Yes
Forced : No
Audio #2
ID : 3
Format : AC-3
Format/Info : Audio Coding 3
Mode extension : CM (complete main)
Format settings, Endianness : Big
Codec ID : A_AC3
Duration : 1h 53 min
Bit rate mode : Constant
Bit rate : 384 kb/s
Channel(s) : 6 channels
Channel positions : Front: L C R, Side: L R, LFE
Sampling rate : 48.0 kHz
Frame rate : 31.250 FPS (1536 spf)
Compression mode : Lossy
Stream size : 311 MiB (14%)
Title : Original, AC3 5.1 ~384 kbps
Language : English
Default : No
Forced : No
Text #1
ID : 4
Format : UTF-8
Codec ID : S_TEXT/UTF8
Codec ID/Info : UTF-8 Plain Text
Title : forced
Language : Russian
Default : Yes
Forced : No
Text #2
ID : 5
Format : UTF-8
Codec ID : S_TEXT/UTF8
Codec ID/Info : UTF-8 Plain Text
Language : Russian
Default : No
Forced : No
Text #3
ID : 6
Format : UTF-8
Codec ID : S_TEXT/UTF8
Codec ID/Info : UTF-8 Plain Text
Title : forced
Language : English
Default : No
Forced : No
Text #4
ID : 7
Format : UTF-8
Codec ID : S_TEXT/UTF8
Codec ID/Info : UTF-8 Plain Text
Language : English
Default : No
Forced : No
Menu
00:00:00.000 : en:Navigating The Wonder
00:04:33.189 : en:Return Home
00:07:24.235 : en:Canceled Plans
00:12:07.434 : en:Through The Looking Glass
00:16:39.789 : en:Old Friends
00:22:47.615 : en:Chronosphere
00:24:59.623 : en:Time's Castle
00:30:18.232 : en:The Grand Clock
00:35:29.792 : en:Arrival Of The Red Queen
00:41:32.988 : en:Ocean Of Time
00:45:20.050 : en:Coronation
00:51:35.675 : en:Warning The Hatter
00:54:11.038 : en:Tea Party With Time
00:57:40.122 : en:Tart Trouble
01:04:18.521 : en:"The Stroke Of Six"
01:09:18.988 : en:Escape From The Asylum
01:12:46.278 : en:Horunvendush Day
01:18:07.390 : en:Red Queen's Lair
01:23:20.244 : en:Changing The Past
01:27:34.747 : en:Running Out Of Time
01:32:15.947 : en:Family Reunion
01:36:40.461 : en:Goodbyes
01:40:12.588 : en:Setting Sail
01:43:14.813 : en:End Credits


_________________



реклама партнёра


Вернуться к началу
 Профиль Отправить личное сообщение  
 
   Похожие торренты   Автор   Торрент   Размер 
В этой теме нет новых непрочитанных сообщений. Алиса в Зазеркалье / Alice Through the Looking Glass [фэнтези, приключения, семейный, 2016] BDRip, Dub [лицензия]

salma3

350 | 86

2.18 ГБ

В этой теме нет новых непрочитанных сообщений. Алиса в Зазеркалье / Alice Through the Looking Glass [фэнтези, приключения, семейный, 2016] BDRip, Dub [лицензия]

salma3

716 | 197

1.46 ГБ

В этой теме нет новых непрочитанных сообщений. Алиса в Зазеркалье / Alice Through the Looking Glass [фэнтези, приключения, семейный, 2016] BDRip 720p, Dub [лицензия]

salma3

278 | 95

7.38 ГБ

В этой теме нет новых непрочитанных сообщений. Алиса в Зазеркалье / Alice Through the Looking Glass [фэнтези, приключения, семейный, 2016] BDRip 1080p, Dub [лицензия]

salma3

2 | 18

15.27 ГБ

В этой теме нет новых непрочитанных сообщений. Повторный Алиса в Зазеркалье / Alice Through the Looking Glass ( фэнтези, приключения, семейный, 2016) BDRip от ExKinoRay | Лицензия Данный торрент является блокированным, причина: повторный торрент

marya111

0 | 0

1.46 ГБ

В этой теме нет новых непрочитанных сообщений. Алиса в Зазеркалье / Alice Through the Looking Glass [Фэнтези, приключения, семейный, 2016] DVD5, Dub

salma3

45 | 27

4.37 ГБ

В этой теме нет новых непрочитанных сообщений. Алиса в Зазеркалье [Фэнтези, приключения, семейный, 2016] Blu-Ray 1080p, Dub [3D-Video] [Лицензия]

marya111

63 | 52

45.7 ГБ


Начать новую тему Ответить на тему  [ 1 сообщение ] 




Для Мосгорсуда, Роскомнадзора и рекламодателей:: mosgorsud-torrent[собачка]yandex.ru