Торрент файл
скачать торрент магнет ссылка Добавлен: 12 окт 2016, 20:14
Размер: 1.46 ГБ
Сидеров: 77
Личеров: 11
Статус: (salma3)
Автор

СообщениеДобавлено: 12 окт 2016, 20:14 

Не в сети
Супермодератор
Аватара пользователя
Дата регистрации:
15 фев 2012, 16:44
Возраст: 27
Спасибо: 5143 / 2090
Сообщения: 17514
Перевод: Авторский (одноголосый, закадровый)
Субтитры: отсутствуют
Формат: DVDRip, AVI, XviD, AC3
Страна: США
Режиссер: Дэвид ДеКото
Жанр: фантастика, комедия
Продолжительность: 01:23:40
Год выпуска: 1989

В ролях: Билли Джейн, Джуди Лэндерс, Оливия Бэраш, Стюарт Фрэткин, Рэймонд О’Коннор, Арлин Голонка, Джим Хэккет, Роберт Джейн, Джули Грей, Скотт Моррис...

Описание: Доктор Аккерман, новая учительница биологии, так хорошо изменила внешность, что никто и не подозревает, что она на самом деле ученая – пришелец. Она экспериментирует на студенте-первокурснике Уэсли, быстро становящемся сексуальным магнитом, перед которым не может устоять ни одна девушка, в их числе и сама Доктор-пришелец…



Видео: 688x528 (1.30:1), 23.976 fps, XviD build 65 ~-2290 kbps avg, 0.263 bit/pixel
Аудио: 48 kHz, AC3 Dolby Digital, 2/0 (L,R) ch, ~192 kbps

Доп. информация: Исходник: DVD5 R1
Общее
Полное имя : Doktor.chuzhoy.1989.A.DVDRip_avi
Формат : AVI
Формат/Информация : Audio Video Interleave
Размер файла : 1,46 Гбайт
Продолжительность : 1 ч. 23 м.
Общий поток : 2491 Кбит/сек
Программа кодирования : VirtualDubMod 1.5.10.3 (build 2550/release)
Библиотека кодирования : VirtualDubMod build 2550/release

Видео
Идентификатор : 0
Формат : MPEG-4 Visual
Профиль формата : Advanced Simple@L5
Параметр BVOP формата : 1
Параметр QPel формата : Нет
Параметр GMC формата : Без точки перехода
Параметр матрицы формата : Выборочная
Идентификатор кодека : XVID
Идентификатор кодека/Подсказка : XviD
Продолжительность : 1 ч. 23 м.
Битрейт : 2290 Кбит/сек
Ширина : 688 пикселей
Высота : 528 пикселей
Соотношение сторон : 4:3
Частота кадров : 23,976 кадра/сек
Цветовое пространство : YUV
Субдискретизация насыщенности : 4:2:0
Битовая глубина : 8 бит
Тип развёртки : Прогрессивная
Метод сжатия : С потерями
Бит/(Пиксели*Кадры) : 0.263
Размер потока : 1,34 Гбайт (92%)
Библиотека кодирования : XviD 65

Аудио
Идентификатор : 1
Формат : AC-3
Формат/Информация : Audio Coding 3
Расширение режима : CM (complete main)
Параметр Endianness формата : Big
Идентификатор кодека : 2000
Продолжительность : 1 ч. 23 м.
Вид битрейта : Постоянный
Битрейт : 192 Кбит/сек
Каналы : 2 канала
Расположение каналов : Front: L R
Частота : 48,0 КГц
Битовая глубина : 16 бит
Метод сжатия : С потерями
Размер потока : 115 Мбайт (8%)
Выравнивание : Разделение по промежуткам
Продолжительность промежутка : 42 мс. (1,00 видеокадр)
Время предзагрузки промежутка : 500 мс.




_________________



реклама партнёра


Вернуться к началу
 Профиль Отправить личное сообщение  
 
   Похожие торренты   Автор   Торрент   Размер 
В этой теме нет новых непрочитанных сообщений. Доктор Чужой / Доктор с чужой планеты / Dr. Alien [фантастика, комедия, 1989] DVDRip, Avo

salma3

5 | 2

1.46 ГБ

В этой теме нет новых непрочитанных сообщений. Пришелец с другой планеты / Not of This Earth [Фантастика, 1995] DVDRip-AVC, Avo

salma3

1 | 3

1.37 ГБ

В этой теме нет новых непрочитанных сообщений. Гостья из космоса / Чужой пришелец / Alien Intruder [Фантастика, боевик, 1993] VHSRip, Avo

salma3

18 | 7

1.47 ГБ

В этой теме нет новых непрочитанных сообщений. Пришелец из глубины / Alien degli abissi [фантастика, ужасы, 1989] DVDRip, Avo

salma3

58 | 9

1.46 ГБ

В этой теме нет новых непрочитанных сообщений. Пришелец из глубины / Alien degli abissi [Ужасы, фантастика, 1989] DVD5, Avo

salma3

15 | 4

4.04 ГБ

В этой теме нет новых непрочитанных сообщений. Доктор Кто / Doctor Who [S08] (Бен Уитли) [2014, фантастика, комедия, WEB-DLRip | BaibaKo]

Nickolas3435

492 | 379

7.95 ГБ

В этой теме нет новых непрочитанных сообщений. Доктор Кто / Doctor Who [08x01 из 12] (Бен Уитли) [2014, фантастика, комедия, WEB-DLRip | BaibaKo]

Nickolas3435

357 | 14

1.02 ГБ


Начать новую тему Ответить на тему  [ 1 сообщение ] 




Для Мосгорсуда, Роскомнадзора и рекламодателей:: mosgorsud-torrent[собачка]yandex.ru