Торрент файл
скачать торрент магнет ссылка Добавлен: 11 окт 2016, 12:20
Размер: 1.46 ГБ
Сидеров: 95
Личеров: 15
Статус: (salma3)
Автор

СообщениеДобавлено: 11 окт 2016, 12:20 

Не в сети
Супермодератор
Аватара пользователя
Дата регистрации:
15 фев 2012, 16:44
Возраст: 27
Спасибо: 5139 / 2089
Сообщения: 17423
Страна: Великобритания
Жанр: ужасы, драма, детектив
Год выпуска: 1980
Продолжительность: 01:25:55
Перевод: Авторский (одноголосый закадровый) Юрий Немахов
Cубтитры: нет
Режиссер: Гэбриэлль Бомонт / Gabrielle Beaumont

В ролях: Малкольм Стоддард, Сид Хейман, Анджела Плезенс, Патрик Барр, Вильгельмина Грин, Джоэнн Бурман, Анджела Димер, Кларисса Янг, Ли Грегори

Описание: В доме большой английской семьи появляется беременная женщина, которая вскоре после родов исчезает. Члены семейства решают оставить новорождённую девочку, не подозревая, каким злом для них это обернётся в будущем.



Качество видео: HDRip
Формат видео: AVI
Видео: 704x400 (1.76:1), 23.976 fps, XviD build 73 ~2233 kbps avg, 0.33 bit/pixel
Аудио: 48 kHz, AC3 Dolby Digital, 2/0 (L,R) ch, ~192 kbps
Размер: 1496.61 Mb (1/3 DVD-R)
General
Format : AVI
Format/Info : Audio Video Interleave
File size : 1.46 GiB
Duration : 1h 25mn
Overall bit rate : 2 435 Kbps
Writing application : VirtualDubMod 1.5.10.3 | www.virtualdub-fr.org || (build 2550/release)
Writing library : VirtualDubMod build 2550/release
Video
ID : 0
Format : MPEG-4 Visual
Format profile : Advanced Simple@L5
Format settings, BVOP : 1
Format settings, QPel : No
Format settings, GMC : No warppoints
Format settings, Matrix : Custom
Codec ID : XVID
Codec ID/Hint : XviD
Duration : 1h 25mn
Bit rate : 2 234 Kbps
Width : 704 pixels
Height : 400 pixels
Display aspect ratio : 16:9
Frame rate : 23.976 fps
Color space : YUV
Chroma subsampling : 4:2:0
Bit depth : 8 bits
Scan type : Progressive
Compression mode : Lossy
Bits/(Pixel*Frame) : 0.331
Stream size : 1.34 GiB (92%)
Writing library : XviD 73
Audio
ID : 1
Format : AC-3
Format/Info : Audio Coding 3
Mode extension : CM (complete main)
Format settings, Endianness : Big
Codec ID : 2000
Duration : 1h 25mn
Bit rate mode : Constant
Bit rate : 192 Kbps
Channel(s) : 2 channels
Channel positions : Front: L R
Sampling rate : 48.0 KHz
Bit depth : 16 bits
Compression mode : Lossy
Stream size : 118 MiB (8%)
Alignment : Split accross interleaves
Interleave, duration : 42 ms (1.00 video frame)
Interleave, preload duration : 500 ms

За перевод Юрия Немахова спасибо Lucian666, за синхронизацию перевода огромное благодарность *Sergeant_am*.

Автор рипа: Sem-teРелиз от:


_________________



реклама партнёра


Вернуться к началу
 Профиль Отправить личное сообщение  
 
   Похожие торренты   Автор   Торрент   Размер 
В этой теме нет новых непрочитанных сообщений. Другой / Godsend [Ужасы, триллер, драма, 2004] ВDRip 1080р, Dub

salma3

10 | 3

7.16 ГБ

В этой теме нет новых непрочитанных сообщений. Ребенок Розмари / Rosemary's Baby [ужасы, драма, детектив, 1968] BDRip, Mvo

salma3

59 | 4

1.46 ГБ

В этой теме нет новых непрочитанных сообщений. Ребенок Розмари / Rosemary's Baby [ужасы, драма, детектив, 1968] BDRip 720p, Mvo+2Avo+Sub

salma3

28 | 10

10.21 ГБ

В этой теме нет новых непрочитанных сообщений. Ребёнок Розмари / Rosemary's Baby / 1 сезон 1-04 серии из 4 [ужасы, драма, детектив, 2014] WEB-DLRip, Mvo [LostFilm]

salma3

218 | 36

1.61 ГБ

В этой теме нет новых непрочитанных сообщений. Неродившийся ребенок / The Unborn [ужасы, фантастика, триллер, драма, 1991] DVDRip, Mvo

salma3

28 | 1

1.37 ГБ

В этой теме нет новых непрочитанных сообщений. Преисподняя / Inferno [Ужасы, детектив, 1980] BDRip 1080p, Mvo+Avo+Sub

salma3

32 | 28

10.22 ГБ

В этой теме нет новых непрочитанных сообщений. Лесной наблюдатель / The Watcher in the Woods [Ужасы, триллер, детектив, 1980] DVDRip, Avo

salma3

22 | 3

1.37 ГБ


Начать новую тему Ответить на тему  [ 1 сообщение ] 




Для Мосгорсуда, Роскомнадзора и рекламодателей:: mosgorsud-torrent[собачка]yandex.ru